Sign Up   |   Sign In  

Announcements

Want to support us?
Buy a RapidRAR account from our resellers:
Buy or renew a NitroFlare account via THIS LINK
We'll stop uploading files to Uploaded.net in December 2017.
Until further notice, We will continue uploading files to uploaded.net.

04/18

2017

1

Comments

24 Legacy S01E12 1080p AMZN WEBRip DD5 1 x264-ViscaBarca
[RR/NF/UL]
Size: 4.1GB mkv H264 (HIGH) / EAC3  HD  1920x1080

24: Legacy
Click on the image to see full size
[RR/NF/UL] 24 Legacy S01E12 1080p AMZN WEBRip DD5 1 x264-ViscaBarca (4.1GB) - Snapshot 1
File Information
[URL=http://imagecurl.com/viewer.php?file=64980987622599170256.png][IMG]http://imagecurl.com/images/64980987622599170256_thumb.png[/IMG][/URL]
[URL=http://imagecurl.com/viewer.php?file=64446482476006214901.png][IMG]http://imagecurl.com/images/64446482476006214901_thumb.png[/IMG][/URL]
[URL=http://imagecurl.com/viewer.php?file=76052169682114816648.png][IMG]http://imagecurl.com/images/76052169682114816648_thumb.png[/IMG][/URL]
[URL=http://imagecurl.com/viewer.php?file=73098412540749783248.png][IMG]http://imagecurl.com/images/73098412540749783248_thumb.png[/IMG][/URL]
[URL=http://imagecurl.com/viewer.php?file=69669379740176784082.png][IMG]http://imagecurl.com/images/69669379740176784082_thumb.png[/IMG][/URL]
[URL=http://imagecurl.com/viewer.php?file=07350847294199050975.png][IMG]http://imagecurl.com/images/07350847294199050975_thumb.png[/IMG][/URL]



[mediainfo]
Video
ID                                       : 1
Format                                   : AVC
Format/Info                              : Advanced Video Codec
Format profile                           : [email protected]
Format settings, CABAC                   : Yes
Format settings, ReFrames                : 4 frames
Codec ID                                 : V_MPEG4/ISO/AVC
Duration                                 : 44mn 0s
Bit rate                                 : 12.7 Mbps
Width                                    : 1 920 pixels
Height                                   : 1 080 pixels
Display aspect ratio                     : 16:9
Frame rate mode                          : Constant
Frame rate                               : 23.976 (24000/1001) fps
Color space                              : YUV
Chroma subsampling                       : 4:2:0
Bit depth                                : 8 bits
Scan type                                : Progressive
Bits/(Pixel*Frame)                       : 0.255
Stream size                              : 3.90 GiB (95%)
Default                                  : Yes
Forced                                   : No

Audio
ID                                       : 2
Format                                   : E-AC-3
Format/Info                              : Audio Coding 3
Format settings, Endianness              : Big
Codec ID                                 : A_EAC3
Duration                                 : 44mn 0s
Bit rate mode                            : Constant
Bit rate                                 : 640 Kbps
Channel(s)                               : 6 channels
Channel positions                        : Front: L C R, Side: L R, LFE
Sampling rate                            : 48.0 KHz
Frame rate                               : 187.500 fps (256 spf)
Compression mode                         : Lossy
Delay relative to video                  : 7ms
Stream size                              : 201 MiB (5%)
Language                                 : English
Default                                  : Yes
Forced                                   : No

Text
ID                                       : 3
Format                                   : UTF-8
Codec ID                                 : S_TEXT/UTF8
Codec ID/Info                            : UTF-8 Plain Text
Duration                                 : 43mn 41s
Bit rate                                 : 56 bps
Count of elements                        : 665
Stream size                              : 18.0 KiB (0%)
Language                                 : English
Default                                  : Yes
Forced                                   : No



[/mediainfo]
Download
File Container: MKV
Video/Audio Codec: H264 (HIGH) EAC3
Video Resolution: 1920x1080
 
 
 

Show us some love

1 Response to "[RR/NF/UL] 24 Legacy S01E12 1080p AMZN WEBRip DD5 1 x264-ViscaBarca (4.1GB)"
05/20/17
02:10:14
Admin

RapidRAR re-uploaded with new RAR file(s) (users who couldn't download some parts need to download all parts again).

Leave a Comment

  • (never displayed)
  •  
        Members don't see captchas. Sign Up / Sign In
  • Notify me via email when someone responds.
  • Subscribe my Feeds
  • Facebook

Latest Episodes

Popular Movies and TV Shows

  • The Flash
  • The Path
  • Black Lightning
  • The Killing of a Sacred Deer
  • The Man from Earth: Holocene
  • LBJ
  • Lethal Weapon
  • This Is Us
  • Supergirl
  • Last Flag Flying
  • The Mick
  • LA to Vegas
  • Fresh Off the Boat
  • Superman
  • Molly's Game
  • The Shack
  • The Gifted
  • The Good Doctor
  • Black-ish
  • The Lucky Man
  • Geostorm
  • Zhan lang II
  • Star Trek: Discovery
  • Shameless
  • Scorpion

Recent Comments