Sign Up   |   Sign In  

Announcements

Want to support us?
Buy a RapidRAR account from our resellers:
Buy or renew a NitroFlare account via THIS LINK

04/18

2017

No

Comments

24 Legacy S01E12 720p WEB-DL DD5 1 H264-RARBG
[RR/NF/UL]
Size: 1.4GB mkv H264 (HIGH) / AC3  HD  1280x718

24: Legacy
Click on the image to see full size
[RR/NF/UL] 24 Legacy S01E12 720p WEB-DL DD5 1 H264-RARBG (1.4GB) - Snapshot 1
File Information
[URL=http://imagecurl.com/viewer.php?file=80733720870363085334.png][IMG]http://imagecurl.com/images/80733720870363085334_thumb.png[/IMG][/URL]
[URL=http://imagecurl.com/viewer.php?file=72965492415422142038.png][IMG]http://imagecurl.com/images/72965492415422142038_thumb.png[/IMG][/URL]
[URL=http://imagecurl.com/viewer.php?file=97315675231390106573.png][IMG]http://imagecurl.com/images/97315675231390106573_thumb.png[/IMG][/URL]
[URL=http://imagecurl.com/viewer.php?file=84549332441177585586.png][IMG]http://imagecurl.com/images/84549332441177585586_thumb.png[/IMG][/URL]
[URL=http://imagecurl.com/viewer.php?file=67397497296417118947.png][IMG]http://imagecurl.com/images/67397497296417118947_thumb.png[/IMG][/URL]
[URL=http://imagecurl.com/viewer.php?file=03150772804555119147.png][IMG]http://imagecurl.com/images/03150772804555119147_thumb.png[/IMG][/URL]



[mediainfo]
Video
ID                                       : 1
Format                                   : AVC
Format/Info                              : Advanced Video Codec
Format profile                           : [email protected]
Format settings, CABAC                   : No
Format settings, ReFrames                : 2 frames
Codec ID                                 : V_MPEG4/ISO/AVC
Duration                                 : 43mn 54s
Bit rate                                 : 4 040 Kbps
Width                                    : 1 280 pixels
Height                                   : 718 pixels
Display aspect ratio                     : 16:9
Frame rate mode                          : Constant
Frame rate                               : 23.976 (24000/1001) fps
Color space                              : YUV
Chroma subsampling                       : 4:2:0
Bit depth                                : 8 bits
Scan type                                : Progressive
Bits/(Pixel*Frame)                       : 0.183
Stream size                              : 1.24 GiB (90%)
Title                                    : 24.Legacy.S01E12.720p.WEB-DL.DD5.1.H264-RARBG
Language                                 : English
Default                                  : Yes
Forced                                   : No
Color range                              : Limited
Color primaries                          : BT.709
Transfer characteristics                 : BT.709
Matrix coefficients                      : BT.709

Audio
ID                                       : 2
Format                                   : AC-3
Format/Info                              : Audio Coding 3
Mode extension                           : CM (complete main)
Format settings, Endianness              : Big
Codec ID                                 : A_AC3
Duration                                 : 43mn 54s
Bit rate mode                            : Constant
Bit rate                                 : 384 Kbps
Channel(s)                               : 6 channels
Channel positions                        : Front: L C R, Side: L R, LFE
Sampling rate                            : 48.0 KHz
Frame rate                               : 31.250 fps (1536 spf)
Compression mode                         : Lossy
Stream size                              : 121 MiB (9%)
Title                                    : 24.Legacy.S01E12.720p.WEB-DL.DD5.1.H264-RARBG
Language                                 : English
Default                                  : Yes
Forced                                   : No

Text #1
ID                                       : 3
Format                                   : UTF-8
Codec ID                                 : S_TEXT/UTF8
Codec ID/Info                            : UTF-8 Plain Text
Language                                 : English
Default                                  : Yes
Forced                                   : No

Text #2
ID                                       : 4
Format                                   : UTF-8
Codec ID                                 : S_TEXT/UTF8
Codec ID/Info                            : UTF-8 Plain Text
Title                                    : SDH
Language                                 : English
Default                                  : No
Forced                                   : No



[/mediainfo]
Download
File Container: MKV
Video/Audio Codec: H264 (HIGH) AC3
Video Resolution: 1280x718
 
 
 

Show us some love

Leave a Comment

  • (never displayed)
  •  
        Members don't see captchas. Sign Up / Sign In
  • Notify me via email when someone responds.
  • Subscribe my Feeds
  • Facebook

Latest Episodes

Popular Movies and TV Shows

  • The Son
  • Guardians of the Galaxy Vol. 2
  • Doctor Who
  • Bargain Hunt
  • Boogeyman
  • Ocean's Eleven
  • Training Day
  • Samurai Jack
  • Julie's Greenroom
  • Doomed: The Untold Story of Roger Corman's the Fantastic Four
  • Come Together
  • The Originals
  • Elementary
  • Don't Fuck in the Woods
  • Gotham
  • Baahubali 2: The Conclusion
  • My Favorite Spy
  • Hawaii Five-0
  • The Big Bang Theory
  • Kung-Fu Yoga
  • Designated Survivor
  • Star Wars
  • The Night Watchmen
  • The Blacklist
  • Supernatural

Recent Comments

  • credencedesire-rmz:

    please 480p this and its second season which is also out.

  • Marcus12435:

    Admin please re-upload

  • peyman usa:

    THE ORIGINALS S04E06 1080P WEBRIP HEVC X265-RMTEAM

  • aris73:

    thanks for the movie and the fast clicknupload links!!

  • gyuk:

    ClicknUpload link not working, please rup.
    Thanks!

  • gyuk:

    ClicknUpload link not working, please rup.
    Thanks!

  • gyuk:

    ClicknUpload link not working, please rup.
    Thanks!

  • thaone:

    Thanks

  • thaone:

    Thanks

  • Seabass: One of the dudes in bottom 2 died a few days ago...