Sign Up   |   Sign In  
Star Trek: DiscoverySolo LevelingCrew9-1-1American StarDisneynature: Wings of LifeShark TankThe Blue AngelsA Condition Called LoveWill TrentBright AngelUnman, Wittering and ZigoEvilThe Good DoctorGrey's AnatomyReunionThe Fall GuyCarol Doda Topless at the CondorChicago FireChicago P.D.FBILadies and Gentlemen: The Rolling StonesMad GodBoy Kills WorldThe Rookie

Announcements

04/12

2024

No

Comments

9-1-1 S07E05 You Dont Know Me 1080p AMZN WEB-DL DDP5 1 H 264-FLUX
[RR/NF]
Size: 2.5GB mkv H264 (HIGH) / EAC3  HD  1920x1080

9-1-1
File Information
[img]http://lookpic.com/cdn/i2/t/0412202407393984-1.jpg[/img]
[img]http://lookpic.com/cdn/i2/t/0412202407393984-2.jpg[/img]
[img]http://lookpic.com/cdn/i2/t/0412202407393984-3.jpg[/img]

General
Unique ID                                : 307761789289438419072314595717610303699 (0xE788C3BB0F9580DCD3B47FBA7E0570D3)
Complete name                            : 9-1-1 S07E05 You Dont Know Me 1080p AMZN WEB-DL DDP5 1 H 264-FLUX.mkv
Format                                   : Matroska
Format version                           : Version 4
File size                                : 2.52 GiB
Duration                                 : 42 min 52 s
Overall bit rate                         : 8 430 kb/s
Frame rate                               : 23.976 FPS
Writing application                      : mkvmerge v83.0 ('Circle Of Friends') 64-bit
Writing library                          : libebml v1.4.5 + libmatroska v1.7.1

Video
ID                                       : 1
Format                                   : AVC
Format/Info                              : Advanced Video Codec
Format profile                           : High@L4
Format settings                          : CABAC / 4 Ref Frames
Format settings, CABAC                   : Yes
Format settings, Reference frames        : 4 frames
Codec ID                                 : V_MPEG4/ISO/AVC
Duration                                 : 42 min 52 s
Bit rate mode                            : Constant
Bit rate                                 : 7 787 kb/s
Nominal bit rate                         : 10 000 kb/s
Width                                    : 1 920 pixels
Height                                   : 1 080 pixels
Display aspect ratio                     : 16:9
Frame rate mode                          : Constant
Frame rate                               : 23.976 (24000/1001) FPS
Color space                              : YUV
Chroma subsampling                       : 4:2:0
Bit depth                                : 8 bits
Scan type                                : Progressive
Bits/(Pixel*Frame)                       : 0.157
Stream size                              : 2.33 GiB (92%)
Language                                 : English
Default                                  : Yes
Forced                                   : No
Color range                              : Limited
Color primaries                          : BT.709
Transfer characteristics                 : BT.709
Matrix coefficients                      : BT.709

Audio
ID                                       : 2
Format                                   : E-AC-3
Format/Info                              : Enhanced AC-3
Commercial name                          : Dolby Digital Plus
Codec ID                                 : A_EAC3
Duration                                 : 42 min 52 s
Bit rate mode                            : Constant
Bit rate                                 : 640 kb/s
Channel(s)                               : 6 channels
Channel layout                           : L R C LFE Ls Rs
Sampling rate                            : 48.0 kHz
Frame rate                               : 31.250 FPS (1536 SPF)
Compression mode                         : Lossy
Stream size                              : 196 MiB (8%)
Language                                 : English
Service kind                             : Complete Main
Default                                  : Yes
Forced                                   : No

Text #1
ID                                       : 3
Format                                   : UTF-8
Codec ID                                 : S_TEXT/UTF8
Codec ID/Info                            : UTF-8 Plain Text
Duration                                 : 42 min 7 s
Bit rate                                 : 79 b/s
Frame rate                               : 0.345 FPS
Count of elements                        : 873
Stream size                              : 24.4 KiB (0%)
Language                                 : English (US)
Default                                  : No
Forced                                   : No

Text #2
ID                                       : 4
Format                                   : UTF-8
Codec ID                                 : S_TEXT/UTF8
Codec ID/Info                            : UTF-8 Plain Text
Duration                                 : 42 min 7 s
Bit rate                                 : 84 b/s
Frame rate                               : 0.367 FPS
Count of elements                        : 928
Stream size                              : 26.1 KiB (0%)
Title                                    : SDH
Language                                 : English (US)
Default                                  : No
Forced                                   : No

Menu
00:00:00.000                             : en:Scene 1
00:42:47.000                             : en:Outro



Download
File Container: MKV
Video/Audio Codec: H264 (HIGH) EAC3
Video Resolution: 1920x1080
Please Login to post a comment.
If you don't have any account, please Register.
  • Subscribe my Feeds
  • Facebook
Encoding Queue:  x264  x265

Latest Episodes

Popular Movies and TV Shows

  • Star Trek: Discovery
  • Solo Leveling
  • Crew
  • 9-1-1
  • American Star
  • Disneynature: Wings of Life
  • Shark Tank
  • The Blue Angels
  • A Condition Called Love
  • Will Trent
  • Bright Angel
  • Unman, Wittering and Zigo
  • Evil
  • The Good Doctor
  • Grey's Anatomy
  • Reunion
  • The Fall Guy
  • Carol Doda Topless at the Condor
  • Chicago Fire
  • Chicago P.D.
  • FBI
  • Ladies and Gentlemen: The Rolling Stones
  • Mad God
  • Boy Kills World
  • The Rookie

Recent Comments

  • meyat74:

    please add if possible new episodes 5-6

  • DuranDuran: THE MS PAT show = Does anyone have BOTH the MS PAT show (SEASON 3)-and- (SEASON 4) that just came ou...
  • big_ralphie: Just sitting down to watch and, yes there are subtitles...in ITALIAN ONLY. ENGLISH subs might be hel...
  • Geependo:

    All links are dead

  • OldMovies:

    Has Czech subtitles but not English. Need forced English for the foreign language parts.

  • PROFessorMorrynarty: Would it be possible to upload 'Lego masters Australia' Series 6 Episode 6 Please? It's the only one...
  • mentalityx:

    Thx mate.

  • Bud: Is the search engine down for everyone, or just me? It just says 'You're forbidden!' whenever I lo...

Archives