Sign Up   |   Sign In  
Furiosa: A Mad Max SagaUnder the BridgeAutoeroticNevada SmithWWE NXTViral HitMasterChef AustraliaThe Feeling That the Time for Doing Something Has PassedLootFire CountryI Am Not Big BirdMay DecemberDark MatterWWE RawThe Big Door PrizeYour Mother's SonMahal ko ang mahal moThe First OmenThe Bold and the BeautifulThe SimpsonsCSI: VegasTarotCivil WarThis Beautiful FantasticThe Daily Show

Announcements

04/19

2024

1

Comments

A Gentleman in Moscow S01E04 Good Times 1080p AMZN WEB-DL DDP5 1 H 264-FLUX
[RR/NF]
Size: 3.5GB mkv H264 (HIGH) / EAC3  HD  1920x1080

A Gentleman in Moscow
File Information
[img]http://lookpic.com/cdn/i2/t/0419202406441727-1.jpg[/img]
[img]http://lookpic.com/cdn/i2/t/0419202406441727-2.jpg[/img]
[img]http://lookpic.com/cdn/i2/t/0419202406441727-3.jpg[/img]

General
Unique ID                                : 273062037612148534688032662310449899085 (0xCD6DD5E2C162E845C26FA215F668E64D)
Complete name                            : A Gentleman in Moscow S01E04 Good Times 1080p AMZN WEB-DL DDP5 1 H 264-FLUX.mkv
Format                                   : Matroska
Format version                           : Version 4
File size                                : 3.53 GiB
Duration                                 : 51 min 7 s
Overall bit rate                         : 9 896 kb/s
Frame rate                               : 23.976 FPS
Writing application                      : mkvmerge v81.0 ('Milliontown') 64-bit
Writing library                          : libebml v1.4.4 + libmatroska v1.7.1

Video
ID                                       : 1
Format                                   : AVC
Format/Info                              : Advanced Video Codec
Format profile                           : High@L4
Format settings                          : CABAC / 4 Ref Frames
Format settings, CABAC                   : Yes
Format settings, Reference frames        : 4 frames
Codec ID                                 : V_MPEG4/ISO/AVC
Duration                                 : 51 min 7 s
Bit rate mode                            : Constant
Bit rate                                 : 9 254 kb/s
Nominal bit rate                         : 10 000 kb/s
Width                                    : 1 920 pixels
Height                                   : 1 080 pixels
Display aspect ratio                     : 16:9
Frame rate mode                          : Constant
Frame rate                               : 23.976 (24000/1001) FPS
Color space                              : YUV
Chroma subsampling                       : 4:2:0
Bit depth                                : 8 bits
Scan type                                : Progressive
Bits/(Pixel*Frame)                       : 0.186
Stream size                              : 3.30 GiB (94%)
Language                                 : English (US)
Default                                  : Yes
Forced                                   : No
Color range                              : Limited
Color primaries                          : BT.709
Transfer characteristics                 : BT.709
Matrix coefficients                      : BT.709

Audio
ID                                       : 2
Format                                   : E-AC-3
Format/Info                              : Enhanced AC-3
Commercial name                          : Dolby Digital Plus
Codec ID                                 : A_EAC3
Duration                                 : 51 min 7 s
Bit rate mode                            : Constant
Bit rate                                 : 640 kb/s
Channel(s)                               : 6 channels
Channel layout                           : L R C LFE Ls Rs
Sampling rate                            : 48.0 kHz
Frame rate                               : 31.250 FPS (1536 SPF)
Compression mode                         : Lossy
Stream size                              : 234 MiB (6%)
Language                                 : English (US)
Service kind                             : Complete Main
Default                                  : Yes
Forced                                   : No

Text #1
ID                                       : 3
Format                                   : UTF-8
Codec ID                                 : S_TEXT/UTF8
Codec ID/Info                            : UTF-8 Plain Text
Duration                                 : 49 min 27 s
Bit rate                                 : 59 b/s
Frame rate                               : 0.246 FPS
Count of elements                        : 730
Stream size                              : 21.7 KiB (0%)
Language                                 : English (US)
Default                                  : No
Forced                                   : No

Text #2
ID                                       : 4
Format                                   : UTF-8
Codec ID                                 : S_TEXT/UTF8
Codec ID/Info                            : UTF-8 Plain Text
Duration                                 : 50 min 36 s
Bit rate                                 : 63 b/s
Frame rate                               : 0.266 FPS
Count of elements                        : 808
Stream size                              : 23.6 KiB (0%)
Title                                    : SDH
Language                                 : English (US)
Default                                  : No
Forced                                   : No

Menu
00:00:00.000                             : en:Scene 1
00:00:05.000                             : en:Recap
00:00:50.000                             : en:Scene 2
00:02:40.000                             : en:Intro
00:03:34.000                             : en:Scene 3
00:51:02.000                             : en:Outro



Download
File Container: MKV
Video/Audio Codec: H264 (HIGH) EAC3
Video Resolution: 1920x1080

1 Response to "[RR/NF] A Gentleman in Moscow S01E04 Good Times 1080p AMZN WEB-DL DDP5 1 H 264-FLUX (3.5GB)"
04/19/24
10:49:34
ReadyPlayerOne

Thank You

Please Login to post a comment.
If you don't have any account, please Register.
  • Subscribe my Feeds
  • Facebook
Encoding Queue:  x264  x265

Latest Episodes

Popular Movies and TV Shows

  • Furiosa: A Mad Max Saga
  • Under the Bridge
  • Autoerotic
  • Nevada Smith
  • WWE NXT
  • Viral Hit
  • MasterChef Australia
  • The Feeling That the Time for Doing Something Has Passed
  • Loot
  • Fire Country
  • I Am Not Big Bird
  • May December
  • Dark Matter
  • WWE Raw
  • The Big Door Prize
  • Your Mother's Son
  • Mahal ko ang mahal mo
  • The First Omen
  • The Bold and the Beautiful
  • The Simpsons
  • CSI: Vegas
  • Tarot
  • Civil War
  • This Beautiful Fantastic
  • The Daily Show

Recent Comments

  • spiderspinner: Bud:The same thing started happening to me last night and I've used four different browsers yet they...
  • timt:

    Junk, CAM

  • upx:

    WARNING:This is NOT a BluRay rip. It's a CAMrip.

  • Bud: Is clicknupload borked for anyone else now, or is it just me? In recent months it's only worked in...
  • mentalityx:

    Rad bloke!

  • waanaabe: I hope someone follows through with the rest! also, did not check every post but hoping future ones ...
  • Demonz:

    Holy popups ClickNupload

  • rambaldi70:

    this release sort cut! 1h33m12 !
    imdb - 1h 54m

  • rambaldi70: This release the first bad source 1h33m12 - stop the play this release sort cut! 1h33m12 ! imdb - 1h...
  • rambaldi70:

    this release sort cut! 1h33m12 !
    imdb - 1h 54m

  • dilliboy: Will we ever see these RMTeam releases ever again? I hope they're not lost to the digital graveyard ...
  • kang:

    NitroFlare's link is missing...

  • kang:

    NitroFlare's link is missing...

  • tchamast:

    @Wrapt

    I've seen that too, don't know why.

  • Rafi85: Hi thx for the 14th season. Is it possible to reupload some episodes plz they were removed. These ar...
  • KubrickFan:

    Any possibility of a fresh link for this?

  • GubeShitemon: This is a different movie to the artwork version. Not the Dylan McDermott film but the Ben Affleck f...
  • drorsabi1:

    @admin
    Please add "My Adventures With Superman Season 2 "

  • Wrapt: Hahahaha yeah right make a liar out of me but I was referring to comments made about a movie or an e...
  • Wrapt: Comments are not always appearing in the Recent Comments list after submitting a comment any reason ...

Archives