Sign Up   |   Sign In  
Civil WarDoctor WhoWWE Smackdown!FBI: Most WantedAtlasSouth Park: The End of ObesitySouth ParkSister Boniface MysteriesMcDonald & DoddsThe Human FactorWWE NXTStar Trek: DiscoveryThe RookieFuriosa: A Mad Max SagaThe Fall GuyThe Beach BoysElsbethGrey's Anatomy9-1-1American StarCrewThe Blue AngelsThe Daily ShowChicago FireEvil

Announcements

04/19

2024

1

Comments

A Gentleman in Moscow S01E04 Good Times 720p AMZN WEB-DL DDP5 1 H 264-FLUX
[RR/NF/CU]
Size: 1.5GB mkv H264 (HIGH) / EAC3  HD  1280x720

A Gentleman in Moscow
File Information
[img]http://lookpic.com/cdn/i2/t/0419202406552212-1.jpg[/img]
[img]http://lookpic.com/cdn/i2/t/0419202406552212-2.jpg[/img]
[img]http://lookpic.com/cdn/i2/t/0419202406552212-3.jpg[/img]

General
Unique ID                                : 324799876404213557134012977998057745551 (0xF45A2E4841210CCDCB0648D8B998AC8F)
Complete name                            : A Gentleman in Moscow S01E04 Good Times 720p AMZN WEB-DL DDP5 1 H 264-FLUX.mkv
Format                                   : Matroska
Format version                           : Version 4
File size                                : 1.47 GiB
Duration                                 : 51 min 7 s
Overall bit rate                         : 4 128 kb/s
Frame rate                               : 23.976 FPS
Writing application                      : mkvmerge v81.0 ('Milliontown') 64-bit
Writing library                          : libebml v1.4.4 + libmatroska v1.7.1

Video
ID                                       : 1
Format                                   : AVC
Format/Info                              : Advanced Video Codec
Format profile                           : High@L3.1
Format settings                          : CABAC / 4 Ref Frames
Format settings, CABAC                   : Yes
Format settings, Reference frames        : 4 frames
Codec ID                                 : V_MPEG4/ISO/AVC
Duration                                 : 51 min 7 s
Bit rate mode                            : Constant
Bit rate                                 : 3 486 kb/s
Nominal bit rate                         : 4 000 kb/s
Width                                    : 1 280 pixels
Height                                   : 720 pixels
Display aspect ratio                     : 16:9
Frame rate mode                          : Constant
Frame rate                               : 23.976 (24000/1001) FPS
Color space                              : YUV
Chroma subsampling                       : 4:2:0
Bit depth                                : 8 bits
Scan type                                : Progressive
Bits/(Pixel*Frame)                       : 0.158
Stream size                              : 1.24 GiB (84%)
Language                                 : English (US)
Default                                  : Yes
Forced                                   : No
Color range                              : Limited
Color primaries                          : BT.709
Transfer characteristics                 : BT.709
Matrix coefficients                      : BT.709

Audio
ID                                       : 2
Format                                   : E-AC-3
Format/Info                              : Enhanced AC-3
Commercial name                          : Dolby Digital Plus
Codec ID                                 : A_EAC3
Duration                                 : 51 min 7 s
Bit rate mode                            : Constant
Bit rate                                 : 640 kb/s
Channel(s)                               : 6 channels
Channel layout                           : L R C LFE Ls Rs
Sampling rate                            : 48.0 kHz
Frame rate                               : 31.250 FPS (1536 SPF)
Compression mode                         : Lossy
Stream size                              : 234 MiB (16%)
Language                                 : English (US)
Service kind                             : Complete Main
Default                                  : Yes
Forced                                   : No

Text #1
ID                                       : 3
Format                                   : UTF-8
Codec ID                                 : S_TEXT/UTF8
Codec ID/Info                            : UTF-8 Plain Text
Duration                                 : 49 min 27 s
Bit rate                                 : 59 b/s
Frame rate                               : 0.246 FPS
Count of elements                        : 730
Stream size                              : 21.7 KiB (0%)
Language                                 : English (US)
Default                                  : No
Forced                                   : No

Text #2
ID                                       : 4
Format                                   : UTF-8
Codec ID                                 : S_TEXT/UTF8
Codec ID/Info                            : UTF-8 Plain Text
Duration                                 : 50 min 36 s
Bit rate                                 : 63 b/s
Frame rate                               : 0.266 FPS
Count of elements                        : 808
Stream size                              : 23.6 KiB (0%)
Title                                    : SDH
Language                                 : English (US)
Default                                  : No
Forced                                   : No

Menu
00:00:00.000                             : en:Scene 1
00:00:05.000                             : en:Recap
00:00:50.000                             : en:Scene 2
00:02:40.000                             : en:Intro
00:03:34.000                             : en:Scene 3
00:51:02.000                             : en:Outro



Download
File Container: MKV
Video/Audio Codec: H264 (HIGH) EAC3
Video Resolution: 1280x720

1 Response to "[RR/NF/CU] A Gentleman in Moscow S01E04 Good Times 720p AMZN WEB-DL DDP5 1 H 264-FLUX (1.5GB)"
04/19/24
10:50:40
ReadyPlayerOne

Thank You

Please Login to post a comment.
If you don't have any account, please Register.
  • Subscribe my Feeds
  • Facebook
Encoding Queue:  x264  x265

Latest Episodes

Popular Movies and TV Shows

  • Civil War
  • Doctor Who
  • WWE Smackdown!
  • FBI: Most Wanted
  • Atlas
  • South Park: The End of Obesity
  • South Park
  • Sister Boniface Mysteries
  • McDonald & Dodds
  • The Human Factor
  • WWE NXT
  • Star Trek: Discovery
  • The Rookie
  • Furiosa: A Mad Max Saga
  • The Fall Guy
  • The Beach Boys
  • Elsbeth
  • Grey's Anatomy
  • 9-1-1
  • American Star
  • Crew
  • The Blue Angels
  • The Daily Show
  • Chicago Fire
  • Evil

Recent Comments

  • spiker1961:

    The audio on this is a commentary track, not the actual film audio.

  • spiker1961:

    The audio on this is a commentary track, not the film audio.

  • DuranDuran: The MS PAT show - - Does anyone have BOTH the MS PAT show (SEASON 4) & (SEASON 3) that just cam...
  • newuser:

    need english subtitles

  • Demonz:

    WTH is this

    NO season info and parts 1-13

  • meyat74:

    please add if possible new episodes 5-6

  • DuranDuran: THE MS PAT show = Does anyone have BOTH the MS PAT show (SEASON 3)-and- (SEASON 4) that just came ou...
  • big_ralphie: Just sitting down to watch and, yes there are subtitles...in ITALIAN ONLY. ENGLISH subs might be hel...
  • Geependo:

    All links are dead

  • OldMovies:

    Has Czech subtitles but not English. Need forced English for the foreign language parts.

  • PROFessorMorrynarty: Would it be possible to upload 'Lego masters Australia' Series 6 Episode 6 Please? It's the only one...
  • mentalityx:

    Thx mate.

Archives