Sign Up   |   Sign In  
ElsbethYoung SheldonLaw & Order Toronto: Criminal IntentThe ReaderScreamBarbarianGhostsAmerican Horror StoryLaw & OrderYou Were Never Really HereLie with Me3:10 to YumaStar Trek: DiscoveryThe Three Musketeers - Part II: MiladyFamily GuyGhostbusters: Frozen EmpireChuckyGodzilla x Kong: The New EmpireWalkerAnimal ControlThe Bold and the BeautifulThe InseparablesJokerLa margeFBI

Announcements

02/26

2024

No

Comments

Abbott Elementary S01E01 Pilot 1080p DSNP WEB-DL DD 5 1 H 264-NTb
[RR/NF/CU]
Size: 1.1GB mkv H264 (HIGH) / EAC3  HD  1920x1080

Abbott Elementary
File Information
[img]http://lookpic.com/cdn/i2/t/0226202410253710-1.jpg[/img]
[img]http://lookpic.com/cdn/i2/t/0226202410253710-2.jpg[/img]
[img]http://lookpic.com/cdn/i2/t/0226202410253710-3.jpg[/img]

General
Unique ID                                : 70904795027999573401866918710855668059 (0x3557C44CA50F8EE5CB0517267075115B)
Complete name                            : Abbott.Elementary.S01E01.Pilot.1080p.DSNP.WEB-DL.DD.5.1.H.264-NTb.mkv
Format                                   : Matroska
Format version                           : Version 4
File size                                : 1.09 GiB
Duration                                 : 22 min 18 s
Overall bit rate mode                    : Variable
Overall bit rate                         : 6 997 kb/s
Frame rate                               : 23.976 FPS
Writing application                      : mkvmerge v63.0.0 ('Everything') 64-bit
Writing library                          : libebml v1.4.2 + libmatroska v1.6.4

Video
ID                                       : 1
Format                                   : AVC
Format/Info                              : Advanced Video Codec
Format profile                           : High@L4
Format settings                          : CABAC / 4 Ref Frames
Format settings, CABAC                   : Yes
Format settings, Reference frames        : 4 frames
Codec ID                                 : V_MPEG4/ISO/AVC
Duration                                 : 22 min 18 s
Bit rate mode                            : Variable
Bit rate                                 : 6 735 kb/s
Maximum bit rate                         : 12.7 Mb/s
Width                                    : 1 920 pixels
Height                                   : 1 080 pixels
Display aspect ratio                     : 16:9
Frame rate mode                          : Constant
Frame rate                               : 23.976 (24000/1001) FPS
Color space                              : YUV
Chroma subsampling                       : 4:2:0
Bit depth                                : 8 bits
Scan type                                : Progressive
Bits/(Pixel*Frame)                       : 0.135
Time code of first frame                 : 00:00:00:0000000000
Stream size                              : 1.05 GiB (96%)
Default                                  : Yes
Forced                                   : No
Color range                              : Limited
Color primaries                          : BT.709
Transfer characteristics                 : BT.709
Matrix coefficients                      : BT.709

Audio
ID                                       : 2
Format                                   : E-AC-3
Format/Info                              : Enhanced AC-3
Commercial name                          : Dolby Digital Plus
Codec ID                                 : A_EAC3
Duration                                 : 22 min 18 s
Bit rate mode                            : Constant
Bit rate                                 : 256 kb/s
Channel(s)                               : 6 channels
Channel layout                           : L R C LFE Ls Rs
Sampling rate                            : 48.0 kHz
Frame rate                               : 31.250 FPS (1536 SPF)
Compression mode                         : Lossy
Stream size                              : 40.9 MiB (4%)
Language                                 : English
Service kind                             : Complete Main
Default                                  : Yes
Forced                                   : No

Text #1
ID                                       : 3
Format                                   : UTF-8
Codec ID                                 : S_TEXT/UTF8
Codec ID/Info                            : UTF-8 Plain Text
Duration                                 : 21 min 54 s
Bit rate                                 : 117 b/s
Frame rate                               : 0.436 FPS
Count of elements                        : 573
Stream size                              : 18.8 KiB (0%)
Language                                 : English
Default                                  : No
Forced                                   : No

Text #2
ID                                       : 4
Format                                   : UTF-8
Codec ID                                 : S_TEXT/UTF8
Codec ID/Info                            : UTF-8 Plain Text
Duration                                 : 21 min 54 s
Bit rate                                 : 122 b/s
Frame rate                               : 0.452 FPS
Count of elements                        : 594
Stream size                              : 19.7 KiB (0%)
Title                                    : SDH
Language                                 : English
Default                                  : No
Forced                                   : No

Text #3
ID                                       : 5
Format                                   : UTF-8
Codec ID                                 : S_TEXT/UTF8
Codec ID/Info                            : UTF-8 Plain Text
Duration                                 : 21 min 47 s
Bit rate                                 : 97 b/s
Frame rate                               : 0.357 FPS
Count of elements                        : 467
Stream size                              : 15.6 KiB (0%)
Language                                 : Danish
Default                                  : No
Forced                                   : No

Text #4
ID                                       : 6
Format                                   : UTF-8
Codec ID                                 : S_TEXT/UTF8
Codec ID/Info                            : UTF-8 Plain Text
Duration                                 : 21 min 47 s
Bit rate                                 : 105 b/s
Frame rate                               : 0.328 FPS
Count of elements                        : 429
Stream size                              : 16.9 KiB (0%)
Language                                 : German
Default                                  : No
Forced                                   : No

Text #5
ID                                       : 7
Format                                   : UTF-8
Codec ID                                 : S_TEXT/UTF8
Codec ID/Info                            : UTF-8 Plain Text
Duration                                 : 21 min 47 s
Bit rate                                 : 184 b/s
Frame rate                               : 0.356 FPS
Count of elements                        : 465
Stream size                              : 29.5 KiB (0%)
Language                                 : Greek
Default                                  : No
Forced                                   : No

Text #6
ID                                       : 8
Format                                   : UTF-8
Codec ID                                 : S_TEXT/UTF8
Codec ID/Info                            : UTF-8 Plain Text
Duration                                 : 21 min 47 s
Bit rate                                 : 100 b/s
Frame rate                               : 0.334 FPS
Count of elements                        : 437
Stream size                              : 16.0 KiB (0%)
Title                                    : Espa+ol (Latinoamericano)
Language                                 : Spanish (Latin America)
Default                                  : No
Forced                                   : No

Text #7
ID                                       : 9
Format                                   : UTF-8
Codec ID                                 : S_TEXT/UTF8
Codec ID/Info                            : UTF-8 Plain Text
Duration                                 : 21 min 47 s
Bit rate                                 : 101 b/s
Frame rate                               : 0.346 FPS
Count of elements                        : 452
Stream size                              : 16.2 KiB (0%)
Title                                    : Espa+ol
Language                                 : Spanish (ES)
Default                                  : No
Forced                                   : No

Text #8
ID                                       : 10
Format                                   : UTF-8
Codec ID                                 : S_TEXT/UTF8
Codec ID/Info                            : UTF-8 Plain Text
Duration                                 : 21 min 47 s
Bit rate                                 : 100 b/s
Frame rate                               : 0.349 FPS
Count of elements                        : 456
Stream size                              : 16.1 KiB (0%)
Language                                 : Finnish
Default                                  : No
Forced                                   : No

Text #9
ID                                       : 11
Format                                   : UTF-8
Codec ID                                 : S_TEXT/UTF8
Codec ID/Info                            : UTF-8 Plain Text
Duration                                 : 21 min 47 s
Bit rate                                 : 114 b/s
Frame rate                               : 0.350 FPS
Count of elements                        : 458
Stream size                              : 18.2 KiB (0%)
Language                                 : French (FR)
Default                                  : No
Forced                                   : No

Text #10
ID                                       : 12
Format                                   : UTF-8
Codec ID                                 : S_TEXT/UTF8
Codec ID/Info                            : UTF-8 Plain Text
Duration                                 : 21 min 47 s
Bit rate                                 : 101 b/s
Frame rate                               : 0.333 FPS
Count of elements                        : 435
Stream size                              : 16.3 KiB (0%)
Language                                 : Italian
Default                                  : No
Forced                                   : No

Text #11
ID                                       : 13
Format                                   : UTF-8
Codec ID                                 : S_TEXT/UTF8
Codec ID/Info                            : UTF-8 Plain Text
Duration                                 : 21 min 49 s
Bit rate                                 : 81 b/s
Frame rate                               : 0.321 FPS
Count of elements                        : 420
Stream size                              : 13.0 KiB (0%)
Language                                 : Japanese
Default                                  : No
Forced                                   : No

Text #12
ID                                       : 14
Format                                   : UTF-8
Codec ID                                 : S_TEXT/UTF8
Codec ID/Info                            : UTF-8 Plain Text
Duration                                 : 21 min 47 s
Bit rate                                 : 123 b/s
Frame rate                               : 0.359 FPS
Count of elements                        : 469
Stream size                              : 19.6 KiB (0%)
Language                                 : Korean
Default                                  : No
Forced                                   : No

Text #13
ID                                       : 15
Format                                   : UTF-8
Codec ID                                 : S_TEXT/UTF8
Codec ID/Info                            : UTF-8 Plain Text
Duration                                 : 21 min 47 s
Bit rate                                 : 95 b/s
Frame rate                               : 0.335 FPS
Count of elements                        : 438
Stream size                              : 15.2 KiB (0%)
Language                                 : Dutch
Default                                  : No
Forced                                   : No

Text #14
ID                                       : 16
Format                                   : UTF-8
Codec ID                                 : S_TEXT/UTF8
Codec ID/Info                            : UTF-8 Plain Text
Duration                                 : 21 min 47 s
Bit rate                                 : 105 b/s
Frame rate                               : 0.356 FPS
Count of elements                        : 466
Stream size                              : 16.9 KiB (0%)
Language                                 : Norwegian
Default                                  : No
Forced                                   : No

Text #15
ID                                       : 17
Format                                   : UTF-8
Codec ID                                 : S_TEXT/UTF8
Codec ID/Info                            : UTF-8 Plain Text
Duration                                 : 21 min 47 s
Bit rate                                 : 97 b/s
Frame rate                               : 0.349 FPS
Count of elements                        : 456
Stream size                              : 15.6 KiB (0%)
Language                                 : Polish
Default                                  : No
Forced                                   : No

Text #16
ID                                       : 18
Format                                   : UTF-8
Codec ID                                 : S_TEXT/UTF8
Codec ID/Info                            : UTF-8 Plain Text
Duration                                 : 21 min 47 s
Bit rate                                 : 106 b/s
Frame rate                               : 0.323 FPS
Count of elements                        : 422
Stream size                              : 17.0 KiB (0%)
Title                                    : Portugu+s (Brasil)
Language                                 : Portuguese (BR)
Default                                  : No
Forced                                   : No

Text #17
ID                                       : 19
Format                                   : UTF-8
Codec ID                                 : S_TEXT/UTF8
Codec ID/Info                            : UTF-8 Plain Text
Duration                                 : 21 min 47 s
Bit rate                                 : 112 b/s
Frame rate                               : 0.355 FPS
Count of elements                        : 464
Stream size                              : 18.0 KiB (0%)
Title                                    : Portugu+s
Language                                 : Portuguese (PT)
Default                                  : No
Forced                                   : No

Text #18
ID                                       : 20
Format                                   : UTF-8
Codec ID                                 : S_TEXT/UTF8
Codec ID/Info                            : UTF-8 Plain Text
Duration                                 : 21 min 47 s
Bit rate                                 : 98 b/s
Frame rate                               : 0.297 FPS
Count of elements                        : 388
Stream size                              : 15.7 KiB (0%)
Language                                 : Romanian
Default                                  : No
Forced                                   : No

Text #19
ID                                       : 21
Format                                   : UTF-8
Codec ID                                 : S_TEXT/UTF8
Codec ID/Info                            : UTF-8 Plain Text
Duration                                 : 21 min 47 s
Bit rate                                 : 99 b/s
Frame rate                               : 0.358 FPS
Count of elements                        : 468
Stream size                              : 15.8 KiB (0%)
Language                                 : Swedish
Default                                  : No
Forced                                   : No

Text #20
ID                                       : 22
Format                                   : UTF-8
Codec ID                                 : S_TEXT/UTF8
Codec ID/Info                            : UTF-8 Plain Text
Duration                                 : 21 min 47 s
Bit rate                                 : 117 b/s
Frame rate                               : 0.358 FPS
Count of elements                        : 468
Stream size                              : 18.7 KiB (0%)
Language                                 : Turkish
Default                                  : No
Forced                                   : No

Text #21
ID                                       : 23
Format                                   : UTF-8
Codec ID                                 : S_TEXT/UTF8
Codec ID/Info                            : UTF-8 Plain Text
Duration                                 : 21 min 47 s
Bit rate                                 : 104 b/s
Frame rate                               : 0.359 FPS
Count of elements                        : 469
Stream size                              : 16.7 KiB (0%)
Title                                    : Chinese (Simplified)
Language                                 : Chinese (Simplified)
Default                                  : No
Forced                                   : No

Text #22
ID                                       : 24
Format                                   : UTF-8
Codec ID                                 : S_TEXT/UTF8
Codec ID/Info                            : UTF-8 Plain Text
Duration                                 : 21 min 47 s
Bit rate                                 : 99 b/s
Frame rate                               : 0.356 FPS
Count of elements                        : 466
Stream size                              : 15.8 KiB (0%)
Title                                    : Chinese (Traditional)
Language                                 : Chinese (Traditional)
Default                                  : No
Forced                                   : No

Menu
00:21:51.854                             : en:Credits



Download
File Container: MKV
Video/Audio Codec: H264 (HIGH) EAC3
Video Resolution: 1920x1080
Please Login to post a comment.
If you don't have any account, please Register.
  • Subscribe my Feeds
  • Facebook
Encoding Queue:  x264  x265

Latest Episodes

Popular Movies and TV Shows

  • Elsbeth
  • Young Sheldon
  • Law & Order Toronto: Criminal Intent
  • The Reader
  • Scream
  • Barbarian
  • Ghosts
  • American Horror Story
  • Law & Order
  • You Were Never Really Here
  • Lie with Me
  • 3:10 to Yuma
  • Star Trek: Discovery
  • The Three Musketeers - Part II: Milady
  • Family Guy
  • Ghostbusters: Frozen Empire
  • Chucky
  • Godzilla x Kong: The New Empire
  • Walker
  • Animal Control
  • The Bold and the Beautiful
  • The Inseparables
  • Joker
  • La marge
  • FBI

Recent Comments

  • Draveren: hi. can we solve this "server under maintenance" stuff, already? if back in the day i'd ke...
  • Majnon: The links are dead. Please re-upload
  • timt:

    Anyone have the movie "Shoot" (1976) to post?

  • Nightshade: Hey, it appears at least the RMTeam separate episodes and ION's packs for the first two seasons of t...
  • Bigfishguy:

    There's no free option to download this video. Can someone please upload it to clicknupload?

  • timt:

    Junk

  • timt:

    CAM Audio

  • timt:

    Hard Coded SUMS! Russian, I Think.

  • ubirattan:

    Mandem um Fikper, por favor.

  • kellym2: No answer yet for my query - why all the episodes "server under maintenance" on some episo...
  • Majnon:

    Rapidrar links are dead :(

  • Rake:

    Loads of "Server is under maintenance" with RR theese days...

  • kellym2: Why am I getting "Server is in maintenance mode" on some episodes of a series and not on o...
  • Bud:

    Are you ever going to put up Thursday's episode with Liev Schreiber?

Archives