Sign Up   |   Sign In  

Announcements

Want to support us?
Buy a RapidRAR account from our resellers:
Buy or renew a NitroFlare account via THIS LINK
Until further notice, We will continue uploading files to uploaded.net.

02/12

2017

4

Comments

All the Marbles 1981 WEBRip x264-RARBG
[RR/NF/UL/UR/CU]
Size: 1000MB mp4 H264 (HIGH) (AVC1) / AAC (LC) (MP4A) 720x400

...All the Marbles
Click on the image to see full size
[RR/NF/UL/UR/CU] All the Marbles 1981 WEBRip x264-RARBG (1000MB) - Snapshot 1[RR/NF/UL/UR/CU] All the Marbles 1981 WEBRip x264-RARBG (1000MB) - Snapshot 2
File Information
[URL]http://www.imdb.com/title/tt0081964/[/URL]
[screenshots]
[URL=http://imagecurl.com/viewer.php?file=75042322737107999201.png][IMG]http://imagecurl.com/images/75042322737107999201_thumb.png[/IMG][/URL]
[URL=http://imagecurl.com/viewer.php?file=63985748851593631148.png][IMG]http://imagecurl.com/images/63985748851593631148_thumb.png[/IMG][/URL]
[URL=http://imagecurl.com/viewer.php?file=16984631484202386671.png][IMG]http://imagecurl.com/images/16984631484202386671_thumb.png[/IMG][/URL]
[URL=http://imagecurl.com/viewer.php?file=72627091098174133501.png][IMG]http://imagecurl.com/images/72627091098174133501_thumb.png[/IMG][/URL]
[URL=http://imagecurl.com/viewer.php?file=32436259030512898208.png][IMG]http://imagecurl.com/images/32436259030512898208_thumb.png[/IMG][/URL]

[/screenshots]


[mediainfo]
Video
ID                                       : 1
Format                                   : AVC
Format/Info                              : Advanced Video Codec
Format profile                           : [email protected]
Format settings, CABAC                   : Yes
Format settings, ReFrames                : 5 frames
Codec ID                                 : avc1
Codec ID/Info                            : Advanced Video Coding
Duration                                 : 1 h 53 min
Bit rate                                 : 1 100 kb/s
Width                                    : 720 pixels
Height                                   : 400 pixels
Display aspect ratio                     : 16:9
Frame rate mode                          : Constant
Frame rate                               : 23.976 (24000/1001) FPS
Color space                              : YUV
Chroma subsampling                       : 4:2:0
Bit depth                                : 8 bits
Scan type                                : Progressive
Bits/(Pixel*Frame)                       : 0.159
Stream size                              : 893 MiB (89%)
Title                                    : RARBG.COM - All.the.Marbles.1981.WEBRip.x264-RARBG
Writing library                          : x264 core 148 r2638M 7599210
 Encoding settings                        : cabac=1 / ref=5 / deblock=1:-1:-1 / analyse=0x3:0x113 / me=umh / subme=9 / psy=1 / psy_rd=1.00:0.15 / mixed_ref=1 / me_range=16 / chroma_me=1 / trellis=2 / 8x8dct=1 / cqm=0 / deadz / fast pskip=1 / chroma_qp_offset=-3 / threads=12 / lookahead_threads=1 / sliced_threads=0 / nr=0 / decimate=1 / interlaced=0 / bluray_compat=0 / c / bframes=3 / b_pyramid=2 / b_adapt=2 / b_bias=0 / direct=3 / weightb=1 / open_gop=0 / weightp=2 / keyint=250 / keyint_min=23 / scenecut=40 / intra_refresh=0 / rc_lookahead=50 / rc=abr / mbtree=1 / bitrate=1100 / ratetol=1.0 / qcomp=0.60 / qpmin=0 / qpmax=69 / qpstep=4 / ip_ratio=1.40 / aq=1:1.00
Language                                 : English
Encoded date                             : UTC 2017-02-12 03:10:41
Tagged date                              : UTC 2017-02-12 03:10:41

Audio
ID                                       : 2
Format                                   : AAC
Format/Info                              : Advanced Audio Codec
Format profile                           : LC
Codec ID                                 : 40
Duration                                 : 1 h 53 min
Duration_LastFrame                       : -11 ms
Bit rate mode                            : Constant
Bit rate                                 : 128 kb/s
Channel(s)                               : 2 channels
Channel positions                        : Front: L R
Sampling rate                            : 48.0 kHz
Frame rate                               : 46.875 FPS (1024 spf)
Compression mode                         : Lossy
Stream size                              : 103 MiB (10%)
Title                                    : RARBG.COM - All.the.Marbles.1981.WEBRip.x264-RARBG
Language                                 : English
Default                                  : Yes
Alternate group                          : 1
Encoded date                             : UTC 2017-02-12 03:10:41
Tagged date                              : UTC 2017-02-12 03:10:41



[/mediainfo]
Download
File Container: MP4
Video/Audio Codec: H264 (HIGH) (AVC1) AAC (LC) (MP4A)
Video Resolution: 720x400

4 Responses to "[RR/NF/UL/UR/CU] All the Marbles 1981 WEBRip x264-RARBG (1000MB)"
07/21/18
16:16:21
mike1204

Any chance of re-upping this classic...Please!

07/21/18
16:34:07
thaone

Thank You

07/21/18
17:15:53
cupcake

@mike1204 Here it is

https://openload.co/f/eKJzvIKrAyQ

07/21/18
21:34:36
thaone

Thank You

Leave a Comment

  • (never displayed)
  •  
        Members don't see captchas. Sign Up / Sign In
  • Notify me via email when someone responds.
  • Subscribe my Feeds
  • Facebook

Latest Episodes

Popular Movies and TV Shows

  • Origin
  • The Flash
  • American Horror Story
  • Who's That Girl
  • Mission: Impossible - Fallout
  • Alien Overlords
  • The Rookie
  • This Is Us
  • The Gifted
  • The Wasp Woman
  • A Pink Christmas
  • Beyond The Sky
  • FBI
  • Black Lightning
  • Lethal Weapon
  • Dick
  • MARS: Inside SpaceX
  • Mile 22
  • Searching
  • New Amsterdam
  • NCIS: Naval Criminal Investigative Service
  • Treehouse Detectives
  • All Aboard
  • Bigfoot
  • The Big Bang Theory

Recent Comments

Archives