Sign Up   |   Sign In  

Announcements

Want to support us?
Buy a RapidRAR account from our resellers:
Buy or renew a NitroFlare account via THIS LINK

04/17

2017

No

Comments

American Crime S03E06 WEBRip x264-RARBG
[RR/NF/UL/OL/OLw/UR]
Size: 377MB mp4 H264 (HIGH) (AVC1) / AAC (LC) (MP4A) 720x400

American Crime
Click on the image to see full size
[RR/NF/UL/OL/OLw/UR] American Crime S03E06 WEBRip x264-RARBG (377MB) - Snapshot 1[RR/NF/UL/OL/OLw/UR] American Crime S03E06 WEBRip x264-RARBG (377MB) - Snapshot 2
File Information
[URL]http://www.imdb.com/title/tt3488298/[/URL]
[screenshots]
[URL=http://imagecurl.com/viewer.php?file=31295082705724705943.png][IMG]http://imagecurl.com/images/31295082705724705943_thumb.png[/IMG][/URL]
[URL=http://imagecurl.com/viewer.php?file=05347212212272695724.png][IMG]http://imagecurl.com/images/05347212212272695724_thumb.png[/IMG][/URL]
[URL=http://imagecurl.com/viewer.php?file=38430510283252162051.png][IMG]http://imagecurl.com/images/38430510283252162051_thumb.png[/IMG][/URL]
[URL=http://imagecurl.com/viewer.php?file=98825221504149952627.png][IMG]http://imagecurl.com/images/98825221504149952627_thumb.png[/IMG][/URL]

[/screenshots]


[mediainfo]
Video
ID                                       : 1
Format                                   : AVC
Format/Info                              : Advanced Video Codec
Format profile                           : [email protected]
Format settings, CABAC                   : Yes
Format settings, ReFrames                : 5 frames
Codec ID                                 : avc1
Codec ID/Info                            : Advanced Video Coding
Duration                                 : 43mn 0s
Bit rate                                 : 1 100 Kbps
Width                                    : 720 pixels
Height                                   : 400 pixels
Display aspect ratio                     : 16:9
Frame rate mode                          : Constant
Frame rate                               : 23.976 (24000/1001) fps
Color space                              : YUV
Chroma subsampling                       : 4:2:0
Bit depth                                : 8 bits
Scan type                                : Progressive
Bits/(Pixel*Frame)                       : 0.159
Stream size                              : 337 MiB (89%)
Title                                    : RARBG.COM - American.Crime.S03E06.WEBRip.x264-RARBG
Writing library                          : x264 core 148 r2597M e86f3a1
 Encoding settings                        : cabac=1 / ref=5 / deblock=1:-1:-1 / analyse=0x3:0x113 / me=umh / subme=9 / psy=1 / psy_rd=1.00:0.15 / mixed_ref=1 / me_range=16 / chroma_me=1 / trellis=2 / 8x8dct=1 / cqm=0 / deadz / fast pskip=1 / chroma_qp_offset=-3 / threads=12 / lookahead_threads=1 / sliced_threads=0 / nr=0 / decimate=1 / interlaced=0 / bluray_compat=0 / c / bframes=3 / b_pyramid=2 / b_adapt=2 / b_bias=0 / direct=3 / weightb=1 / open_gop=0 / weightp=2 / keyint=250 / keyint_min=23 / scenecut=40 / intra_refresh=0 / rc_lookahead=50 / rc=abr / mbtree=1 / bitrate=1100 / ratetol=1.0 / qcomp=0.60 / qpmin=0 / qpmax=69 / qpstep=4 / ip_ratio=1.40 / aq=1:1.00
Encoded date                             : UTC 2017-04-17 16:25:12
Tagged date                              : UTC 2017-04-17 16:25:12

Audio
ID                                       : 2
Format                                   : AAC
Format/Info                              : Advanced Audio Codec
Format profile                           : LC
Codec ID                                 : 40
Duration                                 : 43mn 0s
Bit rate mode                            : Constant
Bit rate                                 : 128 Kbps
Channel(s)                               : 2 channels
Channel positions                        : Front: L R
Sampling rate                            : 48.0 KHz
Frame rate                               : 46.875 fps (1024 spf)
Compression mode                         : Lossy
Stream size                              : 39.4 MiB (10%)
Title                                    : RARBG.COM - American.Crime.S03E06.WEBRip.x264-RARBG
Language                                 : English
Default                                  : Yes
Alternate group                          : 1
Encoded date                             : UTC 2017-04-17 16:25:12
Tagged date                              : UTC 2017-04-17 16:25:12



[/mediainfo]
Download
File Container: MP4
Video/Audio Codec: H264 (HIGH) (AVC1) AAC (LC) (MP4A)
Video Resolution: 720x400
 
 
 
 
 
Watch Online [MP4]

Show us some love

Leave a Comment

  • (never displayed)
  •  
        Members don't see captchas. Sign Up / Sign In
  • Notify me via email when someone responds.
  • Subscribe my Feeds
  • Facebook

Latest Episodes

Popular Movies and TV Shows

  • Saving Hope
  • TURN
  • Dark Matter
  • Descendants 2
  • Camera Obscura
  • Biswa Mast Aadmi
  • Wynonna Earp
  • Ozark
  • Killjoys
  • The Circle
  • Kuso
  • Spider-Man: Homecoming
  • The Mist
  • Raven's Home
  • Phoenix Forgotten
  • Game of Thrones
  • First Kill
  • Alien: Covenant
  • Adventure Time with Finn & Jake
  • Zoo
  • Queen of the South
  • Late Night Double Feature
  • Drugstore Cowboy
  • Wakefield
  • Suits

Recent Comments

  • Beano: How come there is no Nitroflare download for this? I won't use RapidRAR since they put my credit car...
  • shooterboy69:

    could this be upped to nitroflare?
    thanks
    k

  • hedgehog:

    uptobox please boss.

  • DLER: That's smth only the uploader can answer for certain. I could just clarify that a video file with 64...
  • Angus:

    Please d'ont Kill the nitroflare uploads. it's the beste source at all.

  • Orper: @DLER @TomMix I asked this because the 1080p version is of 1920x1080 or Full/Actual size. 2:1 is ...
  • TomMix: Because the aspect ratio is 2:1, not 16:9. Seems to be becoming trendy to use a wider ratio on TV, s...
  • DLER: Afaik everything with 1280 pixel width is HD. 720p is just the mainstream expression of HD despite m...
  • Akanaten: What the hells happened to Nitroflare? I renewed yesterday, and the links still on your site, but fr...
  • Hans Maulwurf:

    file is 807MB in RARBG!!!