Sign Up   |   Sign In  

Announcements

Want to support us?
Buy a RapidRAR account from our resellers:
Buy or renew a NitroFlare account via THIS LINK
We'll stop uploading files to Uploaded.net in December 2017.

06/18

2017

2

Comments

American Gods S01E08 WEBRip x264-RARBG
[RR/NF/UL/OL/OLw/UR/CU]
Size: 524MB mp4 H264 (HIGH) (AVC1) / AAC (LC) (MP4A) 720x400

American Gods
Click on the image to see full size
[RR/NF/UL/OL/OLw/UR/CU] American Gods S01E08 WEBRip x264-RARBG (524MB) - Snapshot 1[RR/NF/UL/OL/OLw/UR/CU] American Gods S01E08 WEBRip x264-RARBG (524MB) - Snapshot 2
File Information
[URL]http://www.imdb.com/title/tt1898069/[/URL]
[screenshots]
[URL=http://imagecurl.com/viewer.php?file=41141183135471580974.png][IMG]http://imagecurl.com/images/41141183135471580974_thumb.png[/IMG][/URL]
[URL=http://imagecurl.com/viewer.php?file=48813268586631622162.png][IMG]http://imagecurl.com/images/48813268586631622162_thumb.png[/IMG][/URL]
[URL=http://imagecurl.com/viewer.php?file=03404897419281934482.png][IMG]http://imagecurl.com/images/03404897419281934482_thumb.png[/IMG][/URL]
[URL=http://imagecurl.com/viewer.php?file=76845264049077532267.png][IMG]http://imagecurl.com/images/76845264049077532267_thumb.png[/IMG][/URL]
[URL=http://imagecurl.com/viewer.php?file=88242377276477829014.png][IMG]http://imagecurl.com/images/88242377276477829014_thumb.png[/IMG][/URL]

[/screenshots]


[mediainfo]
Video
ID                                       : 1
Format                                   : AVC
Format/Info                              : Advanced Video Codec
Format profile                           : [email protected]
Format settings, CABAC                   : Yes
Format settings, ReFrames                : 5 frames
Codec ID                                 : avc1
Codec ID/Info                            : Advanced Video Coding
Duration                                 : 1h 0mn
Bit rate                                 : 1 100 Kbps
Width                                    : 720 pixels
Height                                   : 400 pixels
Display aspect ratio                     : 16:9
Frame rate mode                          : Constant
Frame rate                               : 23.976 (24000/1001) fps
Color space                              : YUV
Chroma subsampling                       : 4:2:0
Bit depth                                : 8 bits
Scan type                                : Progressive
Bits/(Pixel*Frame)                       : 0.159
Stream size                              : 467 MiB (89%)
Title                                    : RARBG.COM - American.Gods.S01E08.WEBRip.x264-RARBG
Writing library                          : x264 core 148 r2597M e86f3a1
 Encoding settings                        : cabac=1 / ref=5 / deblock=1:-1:-1 / analyse=0x3:0x113 / me=umh / subme=9 / psy=1 / psy_rd=1.00:0.15 / mixed_ref=1 / me_range=16 / chroma_me=1 / trellis=2 / 8x8dct=1 / cqm=0 / deadz / fast pskip=1 / chroma_qp_offset=-3 / threads=12 / lookahead_threads=1 / sliced_threads=0 / nr=0 / decimate=1 / interlaced=0 / bluray_compat=0 / c / bframes=3 / b_pyramid=2 / b_adapt=2 / b_bias=0 / direct=3 / weightb=1 / open_gop=0 / weightp=2 / keyint=250 / keyint_min=23 / scenecut=40 / intra_refresh=0 / rc_lookahead=50 / rc=abr / mbtree=1 / bitrate=1100 / ratetol=1.0 / qcomp=0.60 / qpmin=0 / qpmax=69 / qpstep=4 / ip_ratio=1.40 / aq=1:1.00
Encoded date                             : UTC 2017-06-18 11:52:32
Tagged date                              : UTC 2017-06-18 11:52:32

Audio
ID                                       : 2
Format                                   : AAC
Format/Info                              : Advanced Audio Codec
Format profile                           : LC
Codec ID                                 : 40
Duration                                 : 1h 0mn
Bit rate mode                            : Constant
Bit rate                                 : 128 Kbps
Channel(s)                               : 2 channels
Channel positions                        : Front: L R
Sampling rate                            : 48.0 KHz
Frame rate                               : 46.875 fps (1024 spf)
Compression mode                         : Lossy
Stream size                              : 55.0 MiB (10%)
Title                                    : RARBG.COM - American.Gods.S01E08.WEBRip.x264-RARBG
Language                                 : English
Default                                  : Yes
Alternate group                          : 1
Encoded date                             : UTC 2017-06-18 11:52:32
Tagged date                              : UTC 2017-06-18 11:52:32



[/mediainfo]
Download
File Container: MP4
Video/Audio Codec: H264 (HIGH) (AVC1) AAC (LC) (MP4A)
Video Resolution: 720x400
 
 
 
 
 
 
Watch Online [MP4]

Show us some love

2 Responses to "[RR/NF/UL/OL/OLw/UR/CU] American Gods S01E08 WEBRip x264-RARBG (524MB)"
06/20/17
00:00:19
Admin

RapidRAR re-uploaded with new RAR file(s) (users who couldn't download some parts need to download all parts again).

06/26/17
02:11:50
LinkChecker

rapid rar isn't available because files over 500mb is for premium users and other servers have removed the file

Leave a Comment

  • (never displayed)
  •  
        Members don't see captchas. Sign Up / Sign In
  • Notify me via email when someone responds.
  • Subscribe my Feeds
  • Facebook

Latest Episodes

Popular Movies and TV Shows

  • The Big Bang Theory
  • Travelers
  • The Gifted
  • Murder She Said
  • The Electric Horseman
  • The Dark Tower
  • Supergirl
  • Lucifer
  • The Brave
  • Patton Oswalt: Annihilation
  • High Society
  • Death of a Scoundrel
  • Scorpion
  • Slasher
  • The Good Doctor
  • Atomic Blonde
  • War for the Planet of the Apes
  • American Made
  • Valor
  • Absentia
  • Liar
  • Bring It On: Worldwide #Cheersmack
  • A Family Man
  • Spider-Man: Homecoming
  • Star Trek: Discovery

Recent Comments

  • basiadora:

    x265-hevc of this one, please

  • validanus:

    ClicknUpload doesn't work ... sad

  • animal99:

    links appear dead..RAR has file limits I can't exceed. Can someone reup? Thanks.

  • terpo:

    or x265 hevc if possible, since it doesn't exist as of yet

    thanks

  • terpo:

    clicknload/upload rocket down

    can you please reup?

    thanks!

  • versel`:

    itsa not the highest qyakirt out there e sen ive sen better

  • thaone:

    Thank You

  • Notis:

    This is episode 5, do not download

  • thaone:

    Thank You

  • thaone:

    Thank You