Sign Up   |   Sign In  
The Fall GuyBoy Kills WorldThe VeilSeize Them!All AmericanBetter Call SaulYoung SheldonStress PositionsInside the Force: 24/7WWE RawHangs Upon NothingClub ZeroThe Name of the RoseThe EqualizerTrackerLet's Make a DealTMZ Presents: The Downfall of DiddyDevil in the FleshThe SimpsonsS.W.A.T.The SympathizerGolden KamuyTales of Ordinary MadnessArthur the KingBeacon 23

Announcements

04/12

2024

1

Comments

American Horror Story S12E07 Ave Hestia 1080p AMZN WEB-DL DDP5 1 H 264-NTb
[RR/NF]
Size: 2.7GB mkv H264 (HIGH) / EAC3  HD  1920x960

American Horror Story
File Information
[img]http://lookpic.com/cdn/i2/t/0412202415492337-1.jpg[/img]
[img]http://lookpic.com/cdn/i2/t/0412202415492337-2.jpg[/img]
[img]http://lookpic.com/cdn/i2/t/0412202415492337-3.jpg[/img]

General
Unique ID                                : 247833215854146107570028127079959921701 (0xBA72F0F00A634E9F36D6898E651C8425)
Complete name                            : American Horror Story S12E07 Ave Hestia 1080p AMZN WEB-DL DDP5 1 H 264-NTb.mkv
Format                                   : Matroska
Format version                           : Version 4
File size                                : 2.70 GiB
Duration                                 : 38 min 19 s
Overall bit rate                         : 10.1 Mb/s
Frame rate                               : 23.976 FPS
Writing application                      : mkvmerge v81.0 ('Milliontown') 64-bit
Writing library                          : libebml v1.4.4 + libmatroska v1.7.1

Video
ID                                       : 1
Format                                   : AVC
Format/Info                              : Advanced Video Codec
Format profile                           : High@L4
Format settings                          : CABAC / 4 Ref Frames
Format settings, CABAC                   : Yes
Format settings, Reference frames        : 4 frames
Codec ID                                 : V_MPEG4/ISO/AVC
Duration                                 : 38 min 19 s
Bit rate mode                            : Constant
Bit rate                                 : 9 450 kb/s
Nominal bit rate                         : 10 000 kb/s
Width                                    : 1 920 pixels
Height                                   : 960 pixels
Display aspect ratio                     : 2.000
Frame rate mode                          : Constant
Frame rate                               : 23.976 (24000/1001) FPS
Color space                              : YUV
Chroma subsampling                       : 4:2:0
Bit depth                                : 8 bits
Scan type                                : Progressive
Bits/(Pixel*Frame)                       : 0.214
Stream size                              : 2.53 GiB (94%)
Default                                  : Yes
Forced                                   : No
Color range                              : Limited
Color primaries                          : BT.709
Transfer characteristics                 : BT.709
Matrix coefficients                      : BT.709

Audio
ID                                       : 2
Format                                   : E-AC-3
Format/Info                              : Enhanced AC-3
Commercial name                          : Dolby Digital Plus
Codec ID                                 : A_EAC3
Duration                                 : 38 min 19 s
Bit rate mode                            : Constant
Bit rate                                 : 640 kb/s
Channel(s)                               : 6 channels
Channel layout                           : L R C LFE Ls Rs
Sampling rate                            : 48.0 kHz
Frame rate                               : 31.250 FPS (1536 SPF)
Compression mode                         : Lossy
Stream size                              : 175 MiB (6%)
Language                                 : English (US)
Service kind                             : Complete Main
Default                                  : Yes
Forced                                   : No

Text #1
ID                                       : 3
Format                                   : UTF-8
Codec ID                                 : S_TEXT/UTF8
Codec ID/Info                            : UTF-8 Plain Text
Duration                                 : 35 min 26 s
Bit rate                                 : 45 b/s
Frame rate                               : 0.208 FPS
Count of elements                        : 442
Stream size                              : 11.9 KiB (0%)
Language                                 : English (US)
Default                                  : No
Forced                                   : No

Text #2
ID                                       : 4
Format                                   : UTF-8
Codec ID                                 : S_TEXT/UTF8
Codec ID/Info                            : UTF-8 Plain Text
Duration                                 : 36 min 58 s
Bit rate                                 : 52 b/s
Frame rate                               : 0.238 FPS
Count of elements                        : 529
Stream size                              : 14.1 KiB (0%)
Title                                    : SDH
Language                                 : English (US)
Default                                  : No
Forced                                   : No

Text #3
ID                                       : 5
Format                                   : UTF-8
Codec ID                                 : S_TEXT/UTF8
Codec ID/Info                            : UTF-8 Plain Text
Duration                                 : 37 min 59 s
Bit rate                                 : 40 b/s
Frame rate                               : 0.168 FPS
Count of elements                        : 384
Stream size                              : 11.3 KiB (0%)
Language                                 : German (DE)
Default                                  : No
Forced                                   : No



Download
File Container: MKV
Video/Audio Codec: H264 (HIGH) EAC3
Video Resolution: 1920x960

1 Response to "[RR/NF] American Horror Story S12E07 Ave Hestia 1080p AMZN WEB-DL DDP5 1 H 264-NTb (2.7GB)"
04/12/24
17:26:36
ReadyPlayerOne

Thank You

Please Login to post a comment.
If you don't have any account, please Register.
  • Subscribe my Feeds
  • Facebook
Encoding Queue:  x264  x265

Latest Episodes

Popular Movies and TV Shows

  • The Fall Guy
  • Boy Kills World
  • The Veil
  • Seize Them!
  • All American
  • Better Call Saul
  • Young Sheldon
  • Stress Positions
  • Inside the Force: 24/7
  • WWE Raw
  • Hangs Upon Nothing
  • Club Zero
  • The Name of the Rose
  • The Equalizer
  • Tracker
  • Let's Make a Deal
  • TMZ Presents: The Downfall of Diddy
  • Devil in the Flesh
  • The Simpsons
  • S.W.A.T.
  • The Sympathizer
  • Golden Kamuy
  • Tales of Ordinary Madness
  • Arthur the King
  • Beacon 23

Recent Comments

  • PROFessorMorrynarty: Would it be possible to upload 'Lego masters Australia' Series 6 Episode 6 Please? It's the only one...
  • mentalityx:

    Thx mate.

  • Bud: Is the search engine down for everyone, or just me? It just says 'You're forbidden!' whenever I lo...
  • 23d1:

    not episode 4 it is episode 3

  • 23d1:

    not episode 4 it is episode 3

  • 23d1:

    not episode 4 it is episode 3

  • 23d1:

    not episode 4 it is episode 3

  • aaroz88:

    Trimas!!

  • mptoo: I don't often ask this, infact this would be the first time, but I don't suppose there is any chance...
  • Cinque_Persson:

    btw:
    quote /quote
    is broken

  • gabrielsyme:

    Sorry but where is the clicknupload link?

  • mike1204:

    Is this episode doomed??? The RMX avi version is only 12 minutes long!!!

Archives