Sign Up   |   Sign In  
Family GuyThe 100th: Billy Joel at Madison Square Garden - The Greatest Arena Run of All TimeHundreds of BeaversÔkami to kôshinryô: merchant meets the wise wolfStill: A Michael J. Fox MovieThe Banished Former Hero Lives as He PleasesThe SympathizerTrackerDune: Part TwoModel HouseAbba: How They Won EurovisionFull SwingThe Great NorthWhen Calls the HeartSullivan's CrossingThe Batman vs. DraculaKurt Cobain: Moments That Shook MusicThe ChannelFalloutBeacon 23ShogunTrinket BoxThere's Still TomorrowTo Die ForFBI

Announcements

02/28

2024

No

Comments

Animaniacs S07E02 Backwards Pinky 1080p HULU WEB-DL DDP5 1 H 264-NTb
[RR/NF/CU]
Size: 525MB mkv H264 (HIGH) / EAC3  HD  1920x1080

Animaniacs
File Information
[img]http://lookpic.com/cdn/i2/t/0228202405173892-1.jpg[/img]
[img]http://lookpic.com/cdn/i2/t/0228202405173892-2.jpg[/img]
[img]http://lookpic.com/cdn/i2/t/0228202405173892-3.jpg[/img]

General
Unique ID                                : 311712139200662005294576535788479047905 (0xEA819304C57A3A58B4CD37F2A48FE8E1)
Complete name                            : Animaniacs.S07E02.Backwards.Pinky.1080p.HULU.WEB-DL.DDP5.1.H.264-NTb.mkv
Format                                   : Matroska
Format version                           : Version 4
File size                                : 525 MiB
Duration                                 : 11 min 52 s
Overall bit rate                         : 6 190 kb/s
Frame rate                               : 23.976 FPS
Movie name                               : Backwards Pinky
Encoded date                             : 2024-02-23 22:17:17 UTC
Writing application                      : mkvmerge v81.0 ('Milliontown') 64-bit
Writing library                          : libebml v1.4.4 + libmatroska v1.7.1 / Lavf60.3.100
MOVIE/ENCODER                            : Lavf60.3.100

Video
ID                                       : 1
Format                                   : AVC
Format/Info                              : Advanced Video Codec
Format profile                           : High@L4
Format settings                          : CABAC / 4 Ref Frames
Format settings, CABAC                   : Yes
Format settings, Reference frames        : 4 frames
Codec ID                                 : V_MPEG4/ISO/AVC
Duration                                 : 11 min 52 s
Bit rate                                 : 5 932 kb/s
Width                                    : 1 920 pixels
Height                                   : 1 080 pixels
Display aspect ratio                     : 16:9
Frame rate mode                          : Constant
Frame rate                               : 23.976 (23976/1000) FPS
Color space                              : YUV
Chroma subsampling                       : 4:2:0
Bit depth                                : 8 bits
Scan type                                : Progressive
Bits/(Pixel*Frame)                       : 0.119
Stream size                              : 504 MiB (96%)
Default                                  : Yes
Forced                                   : No

Audio
ID                                       : 2
Format                                   : E-AC-3
Format/Info                              : Enhanced AC-3
Commercial name                          : Dolby Digital Plus
Codec ID                                 : A_EAC3
Duration                                 : 11 min 51 s
Bit rate mode                            : Constant
Bit rate                                 : 256 kb/s
Channel(s)                               : 6 channels
Channel layout                           : L R C LFE Ls Rs
Sampling rate                            : 48.0 kHz
Frame rate                               : 31.250 FPS (1536 SPF)
Bit depth                                : 32 bits
Compression mode                         : Lossy
Delay relative to video                  : 24 ms
Stream size                              : 21.7 MiB (4%)
Language                                 : English
Service kind                             : Complete Main
Default                                  : Yes
Forced                                   : No

Text
ID                                       : 3
Format                                   : UTF-8
Codec ID                                 : S_TEXT/UTF8
Codec ID/Info                            : UTF-8 Plain Text
Duration                                 : 11 min 47 s
Bit rate                                 : 82 b/s
Frame rate                               : 0.367 FPS
Count of elements                        : 260
Stream size                              : 7.11 KiB (0%)
Language                                 : English
Default                                  : No
Forced                                   : No



Download
File Container: MKV
Video/Audio Codec: H264 (HIGH) EAC3
Video Resolution: 1920x1080
Please Login to post a comment.
If you don't have any account, please Register.
  • Subscribe my Feeds
  • Facebook
Encoding Queue:  x264  x265

Latest Episodes

Popular Movies and TV Shows

  • Family Guy
  • The 100th: Billy Joel at Madison Square Garden - The Greatest Arena Run of All Time
  • Hundreds of Beavers
  • Ôkami to kôshinryô: merchant meets the wise wolf
  • Still: A Michael J. Fox Movie
  • The Banished Former Hero Lives as He Pleases
  • The Sympathizer
  • Tracker
  • Dune: Part Two
  • Model House
  • Abba: How They Won Eurovision
  • Full Swing
  • The Great North
  • When Calls the Heart
  • Sullivan's Crossing
  • The Batman vs. Dracula
  • Kurt Cobain: Moments That Shook Music
  • The Channel
  • Fallout
  • Beacon 23
  • Shogun
  • Trinket Box
  • There's Still Tomorrow
  • To Die For
  • FBI

Recent Comments

  • Bud:

    Are you ever going to put up Thursday's episode with Liev Schreiber?

  • alp-engin:

    When will that maintenance be over? Please...

  • mentalityx:

    Rad bloke

  • DownloadHostInspector:

    so far these RMTeam uploads always have a working link. DownloadHostInspector approved!

  • DownloadHostInspector:

    ah yes, this upload has a host that works. clicknupload. DownloadHostInspector approved!

  • DownloadHostInspector: Why are all the download hosts trash? none of them let you download it
  • Qua4ratic:

    clicknupload link plz

  • ppoo:

    Please, can you add "Real Time with Bill Maher S22E11" ??

  • theahtisham:

    Kindly upload Ep. 3 and 4 as well.

Archives