Sign Up   |   Sign In  
Accidental TexanMR-9: Do or DieBaby ReindeerMy Little NightmareFirst Dates: TeensThe SimpsonsShogunMonkey ManArthur the KingNCISNCIS: Hawai'iDowntown OwlThe NeighborhoodBob Hearts AbisholaAftermathRed EyeI'm Reed FishOne LifeTrackerReal Time with Bill MaherThe Bold and the BeautifulTime AddictsDune: Part TwoKung Fu Panda 4The Sympathizer

Announcements

02/28

2024

No

Comments

Animaniacs S07E05 The Flawed Couple 1080p HULU WEB-DL DDP5 1 H 264-NTb
[RR/NF/CU]
Size: 520MB mkv H264 (HIGH) / EAC3  HD  1920x1080

Animaniacs
File Information
[img]http://lookpic.com/cdn/i2/t/0228202405014825-1.jpg[/img]
[img]http://lookpic.com/cdn/i2/t/0228202405014825-2.jpg[/img]
[img]http://lookpic.com/cdn/i2/t/0228202405014825-3.jpg[/img]

General
Unique ID                                : 90405257918648056588548342709054431787 (0x44036B599339C157B2DE213AC90D622B)
Complete name                            : Animaniacs.S07E05.The.Flawed.Couple.1080p.HULU.WEB-DL.DDP5.1.H.264-NTb.mkv
Format                                   : Matroska
Format version                           : Version 4
File size                                : 521 MiB
Duration                                 : 11 min 45 s
Overall bit rate                         : 6 193 kb/s
Frame rate                               : 23.976 FPS
Movie name                               : The Flawed Couple
Encoded date                             : 2024-02-23 22:17:56 UTC
Writing application                      : mkvmerge v81.0 ('Milliontown') 64-bit
Writing library                          : libebml v1.4.4 + libmatroska v1.7.1 / Lavf60.3.100
MOVIE/ENCODER                            : Lavf60.3.100

Video
ID                                       : 1
Format                                   : AVC
Format/Info                              : Advanced Video Codec
Format profile                           : High@L4
Format settings                          : CABAC / 4 Ref Frames
Format settings, CABAC                   : Yes
Format settings, Reference frames        : 4 frames
Codec ID                                 : V_MPEG4/ISO/AVC
Duration                                 : 11 min 45 s
Bit rate                                 : 5 935 kb/s
Width                                    : 1 920 pixels
Height                                   : 1 080 pixels
Display aspect ratio                     : 16:9
Frame rate mode                          : Constant
Frame rate                               : 23.976 (23976/1000) FPS
Color space                              : YUV
Chroma subsampling                       : 4:2:0
Bit depth                                : 8 bits
Scan type                                : Progressive
Bits/(Pixel*Frame)                       : 0.119
Stream size                              : 499 MiB (96%)
Default                                  : Yes
Forced                                   : No

Audio
ID                                       : 2
Format                                   : E-AC-3
Format/Info                              : Enhanced AC-3
Commercial name                          : Dolby Digital Plus
Codec ID                                 : A_EAC3
Duration                                 : 11 min 45 s
Bit rate mode                            : Constant
Bit rate                                 : 256 kb/s
Channel(s)                               : 6 channels
Channel layout                           : L R C LFE Ls Rs
Sampling rate                            : 48.0 kHz
Frame rate                               : 31.250 FPS (1536 SPF)
Bit depth                                : 32 bits
Compression mode                         : Lossy
Delay relative to video                  : 27 ms
Stream size                              : 21.5 MiB (4%)
Language                                 : English
Service kind                             : Complete Main
Default                                  : Yes
Forced                                   : No

Text
ID                                       : 3
Format                                   : UTF-8
Codec ID                                 : S_TEXT/UTF8
Codec ID/Info                            : UTF-8 Plain Text
Duration                                 : 11 min 42 s
Bit rate                                 : 97 b/s
Frame rate                               : 0.366 FPS
Count of elements                        : 257
Stream size                              : 8.37 KiB (0%)
Language                                 : English
Default                                  : No
Forced                                   : No



Download
File Container: MKV
Video/Audio Codec: H264 (HIGH) EAC3
Video Resolution: 1920x1080
Please Login to post a comment.
If you don't have any account, please Register.
  • Subscribe my Feeds
  • Facebook
Encoding Queue:  x264  x265

Latest Episodes

Popular Movies and TV Shows

  • Accidental Texan
  • MR-9: Do or Die
  • Baby Reindeer
  • My Little Nightmare
  • First Dates: Teens
  • The Simpsons
  • Shogun
  • Monkey Man
  • Arthur the King
  • NCIS
  • NCIS: Hawai'i
  • Downtown Owl
  • The Neighborhood
  • Bob Hearts Abishola
  • Aftermath
  • Red Eye
  • I'm Reed Fish
  • One Life
  • Tracker
  • Real Time with Bill Maher
  • The Bold and the Beautiful
  • Time Addicts
  • Dune: Part Two
  • Kung Fu Panda 4
  • The Sympathizer

Recent Comments

  • mentalityx:

    Thx dude.

  • 89M:

    NitroFlare's link is missing !!!
    Clicknupload's link is missing !!!

  • V4ND4L: May we get a ClicknUpload link for this, please. It's conspicuously missing for the team/size.
  • Bud:

    The file's half the size it should be & corrupted. Useless. Avoid.

  • mentalityx:

    Rad dude

  • mentalityx:

    Rad mate

  • waanaabe:

    I tried this file with 3 different players which all said they couldn't read the codec

  • Rosa: hi i have a question,this file size is 198mb,but on clickenupload is only 118mb is it right? what ha...
  • mike1204:

    Any reason why this episode is omitted from 'click'n'upload??

  • kellym2: I appreciate all the hard work the team does BUT there is no point in my paying for a Premium subscr...
  • Cinque_Persson: Why not skip the old news and hearsay and be constructive: what's the best alternatives for Win, Mac...
  • fallensammer:

    the file on click upload is 119mg onnly and is corrupted

  • ronkanon:

    Could you please provide a ClicknUpload link?

  • ronkanon:

    Could you please provide a ClicknUpload link?

  • waanaabe: Could you Kindly Upload the SOUTH PARK seasons to CU as well? Would be really appreciated
  • gusmac67:

    Clickupload link is corrupt. File bad at 38 min

  • timt:

    Narrated Movie!

Archives