Sign Up   |   Sign In  
Rebel Moon - Part Two: The ScargiverLate Night with the DevilElsbethBlood for DustSo Help Me ToddThe Spiderwick ChroniclesSugarYoung SheldonA Gentleman in MoscowAsphalt CityProblemistaRiver WildLaw & Order: Special Victims UnitManhuntGhostsGhostbusters: Frozen EmpireThe Three Musketeers - Part II: MiladyThe ReaderStar Trek: DiscoveryAmerican Horror StoryFamily GuyYou Were Never Really HereGodzilla x Kong: The New EmpireDune: Part TwoThe Good Doctor

Announcements

02/28

2024

No

Comments

Animaniacs S07E21 Happy Narfday 1080p HULU WEB-DL DDP5 1 H 264-NTb
[RR/NF/CU]
Size: 441MB mkv H264 (HIGH) / EAC3  HD  1920x1080

Animaniacs
File Information
[img]http://lookpic.com/cdn/i2/t/0228202405195853-1.jpg[/img]
[img]http://lookpic.com/cdn/i2/t/0228202405195853-2.jpg[/img]
[img]http://lookpic.com/cdn/i2/t/0228202405195853-3.jpg[/img]

General
Unique ID                                : 48556680821887909973308994170557459369 (0x2487AD3300BF17B8AA69069931F26BA9)
Complete name                            : Animaniacs.S07E21.Happy.Narfday.1080p.HULU.WEB-DL.DDP5.1.H.264-NTb.mkv
Format                                   : Matroska
Format version                           : Version 4
File size                                : 441 MiB
Duration                                 : 9 min 58 s
Overall bit rate                         : 6 184 kb/s
Frame rate                               : 23.976 FPS
Movie name                               : Happy Narfday
Encoded date                             : 2024-02-23 22:37:05 UTC
Writing application                      : mkvmerge v81.0 ('Milliontown') 64-bit
Writing library                          : libebml v1.4.4 + libmatroska v1.7.1 / Lavf60.3.100
MOVIE/ENCODER                            : Lavf60.3.100

Video
ID                                       : 1
Format                                   : AVC
Format/Info                              : Advanced Video Codec
Format profile                           : High@L4
Format settings                          : CABAC / 4 Ref Frames
Format settings, CABAC                   : Yes
Format settings, Reference frames        : 4 frames
Codec ID                                 : V_MPEG4/ISO/AVC
Duration                                 : 9 min 58 s
Bit rate                                 : 5 927 kb/s
Width                                    : 1 920 pixels
Height                                   : 1 080 pixels
Display aspect ratio                     : 16:9
Frame rate mode                          : Constant
Frame rate                               : 23.976 (23976/1000) FPS
Color space                              : YUV
Chroma subsampling                       : 4:2:0
Bit depth                                : 8 bits
Scan type                                : Progressive
Bits/(Pixel*Frame)                       : 0.119
Stream size                              : 423 MiB (96%)
Default                                  : Yes
Forced                                   : No

Audio
ID                                       : 2
Format                                   : E-AC-3
Format/Info                              : Enhanced AC-3
Commercial name                          : Dolby Digital Plus
Codec ID                                 : A_EAC3
Duration                                 : 9 min 58 s
Bit rate mode                            : Constant
Bit rate                                 : 256 kb/s
Channel(s)                               : 6 channels
Channel layout                           : L R C LFE Ls Rs
Sampling rate                            : 48.0 kHz
Frame rate                               : 31.250 FPS (1536 SPF)
Bit depth                                : 32 bits
Compression mode                         : Lossy
Delay relative to video                  : -59 ms
Stream size                              : 18.3 MiB (4%)
Language                                 : English
Service kind                             : Complete Main
Default                                  : Yes
Forced                                   : No

Text
ID                                       : 3
Format                                   : UTF-8
Codec ID                                 : S_TEXT/UTF8
Codec ID/Info                            : UTF-8 Plain Text
Duration                                 : 9 min 54 s
Bit rate                                 : 102 b/s
Frame rate                               : 0.404 FPS
Count of elements                        : 240
Stream size                              : 7.42 KiB (0%)
Language                                 : English
Default                                  : No
Forced                                   : No



Download
File Container: MKV
Video/Audio Codec: H264 (HIGH) EAC3
Video Resolution: 1920x1080
Please Login to post a comment.
If you don't have any account, please Register.
  • Subscribe my Feeds
  • Facebook
Encoding Queue:  x264  x265

Latest Episodes

Popular Movies and TV Shows

  • Rebel Moon - Part Two: The Scargiver
  • Late Night with the Devil
  • Elsbeth
  • Blood for Dust
  • So Help Me Todd
  • The Spiderwick Chronicles
  • Sugar
  • Young Sheldon
  • A Gentleman in Moscow
  • Asphalt City
  • Problemista
  • River Wild
  • Law & Order: Special Victims Unit
  • Manhunt
  • Ghosts
  • Ghostbusters: Frozen Empire
  • The Three Musketeers - Part II: Milady
  • The Reader
  • Star Trek: Discovery
  • American Horror Story
  • Family Guy
  • You Were Never Really Here
  • Godzilla x Kong: The New Empire
  • Dune: Part Two
  • The Good Doctor

Recent Comments

  • 23d1:

    ClicknUpload link is missing

  • yopo:

    NitroFlare's link is missing !!!

  • yopo:

    NitroFlare's link is missing !!!

  • yopo:

    NitroFlare's link is missing !!!
    Clicknupload's link is missing !!!

  • yopo:

    NitroFlare's link is missing !!!

  • dragonnightfire: I have tried contacting Rapid Rar to find out what is going on with the server maintainance. I am no...
  • dragonnightfire:

    RR links dead on 5 eps

  • Draveren: hi. can we solve this "server under maintenance" stuff, already? if back in the day i'd ke...
  • Majnon: The links are dead. Please re-upload
  • timt:

    Anyone have the movie "Shoot" (1976) to post?

  • Nightshade: Hey, it appears at least the RMTeam separate episodes and ION's packs for the first two seasons of t...
  • Bigfishguy:

    There's no free option to download this video. Can someone please upload it to clicknupload?

  • timt:

    Junk

  • timt:

    CAM Audio

  • timt:

    Hard Coded SUMS! Russian, I Think.

  • ubirattan:

    Mandem um Fikper, por favor.

  • kellym2: No answer yet for my query - why all the episodes "server under maintenance" on some episo...
  • Majnon:

    Rapidrar links are dead :(

  • Rake:

    Loads of "Server is under maintenance" with RR theese days...

Archives