Sign Up   |   Sign In  
Arthur the KingNCIS: Hawai'iBaby ReindeerNCISDowntown OwlThe Magnificent SevenShogunMonkey ManThe NeighborhoodMR-9: Do or DieBob Hearts AbisholaAftermathThe SimpsonsAll AmericanRed EyeI'm Reed FishOne LifeTime AddictsTrackerThe Bold and the BeautifulReal Time with Bill MaherDune: Part TwoKung Fu Panda 4Rebel Moon - Part Two: The ScargiverThe Sympathizer

Announcements

02/28

2024

No

Comments

Animaniacs S07E24 Plight of Hand 1080p HULU WEB-DL DDP5 1 H 264-NTb
[RR/NF/CU]
Size: 538MB mkv H264 (HIGH) / EAC3  HD  1920x1080

Animaniacs
File Information
[img]http://lookpic.com/cdn/i2/t/0228202405200337-1.jpg[/img]
[img]http://lookpic.com/cdn/i2/t/0228202405200337-2.jpg[/img]
[img]http://lookpic.com/cdn/i2/t/0228202405200337-3.jpg[/img]

General
Unique ID                                : 51203063671610549426983729742065128968 (0x268559F2877A7E17B58774E97A4F5608)
Complete name                            : Animaniacs.S07E24.Plight.of.Hand.1080p.HULU.WEB-DL.DDP5.1.H.264-NTb.mkv
Format                                   : Matroska
Format version                           : Version 4
File size                                : 538 MiB
Duration                                 : 12 min 11 s
Overall bit rate                         : 6 177 kb/s
Frame rate                               : 23.976 FPS
Movie name                               : Plight of Hand
Encoded date                             : 2024-02-23 22:37:30 UTC
Writing application                      : mkvmerge v81.0 ('Milliontown') 64-bit
Writing library                          : libebml v1.4.4 + libmatroska v1.7.1 / Lavf60.3.100
MOVIE/ENCODER                            : Lavf60.3.100

Video
ID                                       : 1
Format                                   : AVC
Format/Info                              : Advanced Video Codec
Format profile                           : High@L4
Format settings                          : CABAC / 4 Ref Frames
Format settings, CABAC                   : Yes
Format settings, Reference frames        : 4 frames
Codec ID                                 : V_MPEG4/ISO/AVC
Duration                                 : 12 min 11 s
Bit rate                                 : 5 919 kb/s
Width                                    : 1 920 pixels
Height                                   : 1 080 pixels
Display aspect ratio                     : 16:9
Frame rate mode                          : Constant
Frame rate                               : 23.976 (23976/1000) FPS
Color space                              : YUV
Chroma subsampling                       : 4:2:0
Bit depth                                : 8 bits
Scan type                                : Progressive
Bits/(Pixel*Frame)                       : 0.119
Stream size                              : 516 MiB (96%)
Default                                  : Yes
Forced                                   : No

Audio
ID                                       : 2
Format                                   : E-AC-3
Format/Info                              : Enhanced AC-3
Commercial name                          : Dolby Digital Plus
Codec ID                                 : A_EAC3
Duration                                 : 12 min 11 s
Bit rate mode                            : Constant
Bit rate                                 : 256 kb/s
Channel(s)                               : 6 channels
Channel layout                           : L R C LFE Ls Rs
Sampling rate                            : 48.0 kHz
Frame rate                               : 31.250 FPS (1536 SPF)
Bit depth                                : 32 bits
Compression mode                         : Lossy
Delay relative to video                  : -57 ms
Stream size                              : 22.3 MiB (4%)
Language                                 : English
Service kind                             : Complete Main
Default                                  : Yes
Forced                                   : No

Text
ID                                       : 3
Format                                   : UTF-8
Codec ID                                 : S_TEXT/UTF8
Codec ID/Info                            : UTF-8 Plain Text
Duration                                 : 12 min 6 s
Bit rate                                 : 88 b/s
Frame rate                               : 0.371 FPS
Count of elements                        : 270
Stream size                              : 7.89 KiB (0%)
Language                                 : English
Default                                  : No
Forced                                   : No



Download
File Container: MKV
Video/Audio Codec: H264 (HIGH) EAC3
Video Resolution: 1920x1080
Please Login to post a comment.
If you don't have any account, please Register.
  • Subscribe my Feeds
  • Facebook
Encoding Queue:  x264  x265

Latest Episodes

Popular Movies and TV Shows

  • Arthur the King
  • NCIS: Hawai'i
  • Baby Reindeer
  • NCIS
  • Downtown Owl
  • The Magnificent Seven
  • Shogun
  • Monkey Man
  • The Neighborhood
  • MR-9: Do or Die
  • Bob Hearts Abishola
  • Aftermath
  • The Simpsons
  • All American
  • Red Eye
  • I'm Reed Fish
  • One Life
  • Time Addicts
  • Tracker
  • The Bold and the Beautiful
  • Real Time with Bill Maher
  • Dune: Part Two
  • Kung Fu Panda 4
  • Rebel Moon - Part Two: The Scargiver
  • The Sympathizer

Recent Comments

  • mentalityx:

    Thx dude.

  • 89M:

    NitroFlare's link is missing !!!
    Clicknupload's link is missing !!!

  • V4ND4L: May we get a ClicknUpload link for this, please. It's conspicuously missing for the team/size.
  • Bud:

    The file's half the size it should be & corrupted. Useless. Avoid.

  • mentalityx:

    Rad dude

  • mentalityx:

    Rad mate

  • waanaabe:

    I tried this file with 3 different players which all said they couldn't read the codec

  • Rosa: hi i have a question,this file size is 198mb,but on clickenupload is only 118mb is it right? what ha...
  • mike1204:

    Any reason why this episode is omitted from 'click'n'upload??

  • kellym2: I appreciate all the hard work the team does BUT there is no point in my paying for a Premium subscr...
  • Cinque_Persson: Why not skip the old news and hearsay and be constructive: what's the best alternatives for Win, Mac...
  • fallensammer:

    the file on click upload is 119mg onnly and is corrupted

  • ronkanon:

    Could you please provide a ClicknUpload link?

  • ronkanon:

    Could you please provide a ClicknUpload link?

  • waanaabe: Could you Kindly Upload the SOUTH PARK seasons to CU as well? Would be really appreciated
  • gusmac67:

    Clickupload link is corrupt. File bad at 38 min

  • timt:

    Narrated Movie!

Archives