Sign Up   |   Sign In  
TrackerDune: Part TwoModel HouseSullivan's Crossing60 MinutesThe Batman vs. DraculaThe Great NorthBeacon 23The ChannelGrimsburgThere's Still TomorrowTrinket BoxShogunParishSaturday Night LiveThe Taste of ThingsGuardians of the Galaxy Vol. 3A Very Royal Crisis: Countdown to AbdicationFalloutGrey's AnatomyS.W.A.T.Immoral WomenWillowScrambledFBI

Announcements

02/28

2024

No

Comments

Animaniacs S07E43 All About Benjamin 1080p HULU WEB-DL DDP5 1 H 264-NTb
[RR/NF/CU]
Size: 395MB mkv H264 (HIGH) / EAC3  HD  1920x1080

Animaniacs
File Information
[img]http://lookpic.com/cdn/i2/t/0228202405250418-1.jpg[/img]
[img]http://lookpic.com/cdn/i2/t/0228202405250418-2.jpg[/img]
[img]http://lookpic.com/cdn/i2/t/0228202405250418-3.jpg[/img]

General
Unique ID                                : 49250709010628260896488903610820277347 (0x250D576E495267898FB3DDE5A0D93463)
Complete name                            : Animaniacs.S07E43.All.About.Benjamin.1080p.HULU.WEB-DL.DDP5.1.H.264-NTb.mkv
Format                                   : Matroska
Format version                           : Version 4
File size                                : 395 MiB
Duration                                 : 8 min 55 s
Overall bit rate                         : 6 193 kb/s
Frame rate                               : 23.976 FPS
Movie name                               : All About the Benjamin
Encoded date                             : 2024-02-23 22:42:45 UTC
Writing application                      : mkvmerge v81.0 ('Milliontown') 64-bit
Writing library                          : libebml v1.4.4 + libmatroska v1.7.1 / Lavf60.3.100
MOVIE/ENCODER                            : Lavf60.3.100

Video
ID                                       : 1
Format                                   : AVC
Format/Info                              : Advanced Video Codec
Format profile                           : High@L4
Format settings                          : CABAC / 4 Ref Frames
Format settings, CABAC                   : Yes
Format settings, Reference frames        : 4 frames
Codec ID                                 : V_MPEG4/ISO/AVC
Duration                                 : 8 min 55 s
Bit rate                                 : 5 935 kb/s
Width                                    : 1 920 pixels
Height                                   : 1 080 pixels
Display aspect ratio                     : 16:9
Frame rate mode                          : Constant
Frame rate                               : 23.976 (23976/1000) FPS
Color space                              : YUV
Chroma subsampling                       : 4:2:0
Bit depth                                : 8 bits
Scan type                                : Progressive
Bits/(Pixel*Frame)                       : 0.119
Stream size                              : 379 MiB (96%)
Default                                  : Yes
Forced                                   : No

Audio
ID                                       : 2
Format                                   : E-AC-3
Format/Info                              : Enhanced AC-3
Commercial name                          : Dolby Digital Plus
Codec ID                                 : A_EAC3
Duration                                 : 8 min 55 s
Bit rate mode                            : Constant
Bit rate                                 : 256 kb/s
Channel(s)                               : 6 channels
Channel layout                           : L R C LFE Ls Rs
Sampling rate                            : 48.0 kHz
Frame rate                               : 31.250 FPS (1536 SPF)
Bit depth                                : 32 bits
Compression mode                         : Lossy
Delay relative to video                  : -57 ms
Stream size                              : 16.3 MiB (4%)
Language                                 : English
Service kind                             : Complete Main
Default                                  : Yes
Forced                                   : No

Text
ID                                       : 3
Format                                   : UTF-8
Codec ID                                 : S_TEXT/UTF8
Codec ID/Info                            : UTF-8 Plain Text
Duration                                 : 8 min 50 s
Bit rate                                 : 89 b/s
Frame rate                               : 0.362 FPS
Count of elements                        : 192
Stream size                              : 5.76 KiB (0%)
Language                                 : English
Default                                  : No
Forced                                   : No



Download
File Container: MKV
Video/Audio Codec: H264 (HIGH) EAC3
Video Resolution: 1920x1080
Please Login to post a comment.
If you don't have any account, please Register.
  • Subscribe my Feeds
  • Facebook
Encoding Queue:  x264  x265

Latest Episodes

Popular Movies and TV Shows

  • Tracker
  • Dune: Part Two
  • Model House
  • Sullivan's Crossing
  • 60 Minutes
  • The Batman vs. Dracula
  • The Great North
  • Beacon 23
  • The Channel
  • Grimsburg
  • There's Still Tomorrow
  • Trinket Box
  • Shogun
  • Parish
  • Saturday Night Live
  • The Taste of Things
  • Guardians of the Galaxy Vol. 3
  • A Very Royal Crisis: Countdown to Abdication
  • Fallout
  • Grey's Anatomy
  • S.W.A.T.
  • Immoral Women
  • Willow
  • Scrambled
  • FBI

Recent Comments

  • mentalityx:

    Rad bloke

  • DownloadHostInspector:

    so far these RMTeam uploads always have a working link. DownloadHostInspector approved!

  • DownloadHostInspector:

    ah yes, this upload has a host that works. clicknupload. DownloadHostInspector approved!

  • DownloadHostInspector: Why are all the download hosts trash? none of them let you download it
  • Qua4ratic:

    clicknupload link plz

  • ppoo:

    Please, can you add "Real Time with Bill Maher S22E11" ??

  • theahtisham:

    Kindly upload Ep. 3 and 4 as well.

  • Kudzu: Update on sound issue, File's codec info says stereo but is only a the left channel If I switch i...
  • Admin:

    kang
    Getting error while encoding, sorry

Archives