Sign Up   |   Sign In  
At an Uncertain TimeA Dangerous AffairDamagedPredator v PreyVeepHigh HopesThe Spiderwick ChroniclesBlueyRebel Moon - Part Two: The ScargiverThe NorthmanAbigailTracesS.W.A.T.Real Time with Bill MaherFalloutLate Night with the DevilThe Tin StarAsphalt CityBeyond ParadiseSugarWhite BirdYoung SheldonGhostbusters: Frozen EmpireOnce Upon a Time in AmericaA Gentleman in Moscow

Announcements

02/28

2024

No

Comments

Animaniacs S07E44 23 and Wb 1080p HULU WEB-DL DDP5 1 H 264-NTb
[RR/NF/CU]
Size: 604MB mkv H264 (HIGH) / EAC3  HD  1920x1080

Animaniacs
File Information
[img]http://lookpic.com/cdn/i2/t/0228202405235272-1.jpg[/img]
[img]http://lookpic.com/cdn/i2/t/0228202405235272-2.jpg[/img]
[img]http://lookpic.com/cdn/i2/t/0228202405235272-3.jpg[/img]

General
Unique ID                                : 79382970488455576616259861903205520522 (0x3BB89A9F56A79A367C05EB6BC6D8D48A)
Complete name                            : Animaniacs.S07E44.23.and.Wb.1080p.HULU.WEB-DL.DDP5.1.H.264-NTb.mkv
Format                                   : Matroska
Format version                           : Version 4
File size                                : 605 MiB
Duration                                 : 13 min 44 s
Overall bit rate                         : 6 152 kb/s
Frame rate                               : 23.976 FPS
Movie name                               : 23 and WB
Encoded date                             : 2024-02-23 22:43:15 UTC
Writing application                      : mkvmerge v81.0 ('Milliontown') 64-bit
Writing library                          : libebml v1.4.4 + libmatroska v1.7.1 / Lavf60.3.100
MOVIE/ENCODER                            : Lavf60.3.100

Video
ID                                       : 1
Format                                   : AVC
Format/Info                              : Advanced Video Codec
Format profile                           : High@L4
Format settings                          : CABAC / 4 Ref Frames
Format settings, CABAC                   : Yes
Format settings, Reference frames        : 4 frames
Codec ID                                 : V_MPEG4/ISO/AVC
Duration                                 : 13 min 44 s
Bit rate                                 : 5 895 kb/s
Width                                    : 1 920 pixels
Height                                   : 1 080 pixels
Display aspect ratio                     : 16:9
Frame rate mode                          : Constant
Frame rate                               : 23.976 (24000/1001) FPS
Color space                              : YUV
Chroma subsampling                       : 4:2:0
Bit depth                                : 8 bits
Scan type                                : Progressive
Bits/(Pixel*Frame)                       : 0.119
Stream size                              : 579 MiB (96%)
Default                                  : Yes
Forced                                   : No

Audio
ID                                       : 2
Format                                   : E-AC-3
Format/Info                              : Enhanced AC-3
Commercial name                          : Dolby Digital Plus
Codec ID                                 : A_EAC3
Duration                                 : 13 min 44 s
Bit rate mode                            : Constant
Bit rate                                 : 256 kb/s
Channel(s)                               : 6 channels
Channel layout                           : L R C LFE Ls Rs
Sampling rate                            : 48.0 kHz
Frame rate                               : 31.250 FPS (1536 SPF)
Bit depth                                : 32 bits
Compression mode                         : Lossy
Delay relative to video                  : -59 ms
Stream size                              : 25.2 MiB (4%)
Language                                 : English
Service kind                             : Complete Main
Default                                  : Yes
Forced                                   : No

Text
ID                                       : 3
Format                                   : UTF-8
Codec ID                                 : S_TEXT/UTF8
Codec ID/Info                            : UTF-8 Plain Text
Duration                                 : 12 min 47 s
Bit rate                                 : 103 b/s
Frame rate                               : 0.382 FPS
Count of elements                        : 293
Stream size                              : 9.69 KiB (0%)
Language                                 : English
Default                                  : No
Forced                                   : No



Download
File Container: MKV
Video/Audio Codec: H264 (HIGH) EAC3
Video Resolution: 1920x1080
Please Login to post a comment.
If you don't have any account, please Register.
  • Subscribe my Feeds
  • Facebook
Encoding Queue:  x264  x265

Latest Episodes

Popular Movies and TV Shows

  • At an Uncertain Time
  • A Dangerous Affair
  • Damaged
  • Predator v Prey
  • Veep
  • High Hopes
  • The Spiderwick Chronicles
  • Bluey
  • Rebel Moon - Part Two: The Scargiver
  • The Northman
  • Abigail
  • Traces
  • S.W.A.T.
  • Real Time with Bill Maher
  • Fallout
  • Late Night with the Devil
  • The Tin Star
  • Asphalt City
  • Beyond Paradise
  • Sugar
  • White Bird
  • Young Sheldon
  • Ghostbusters: Frozen Empire
  • Once Upon a Time in America
  • A Gentleman in Moscow

Recent Comments

  • Cinque_Persson: Why not skip the old news and hearsay and be constructive: what's the best alternatives for Win, Mac...
  • fallensammer:

    the file on click upload is 119mg onnly and is corrupted

  • ronkanon:

    Could you please provide a ClicknUpload link?

  • ronkanon:

    Could you please provide a ClicknUpload link?

  • waanaabe: Could you Kindly Upload the SOUTH PARK seasons to CU as well? Would be really appreciated
  • gusmac67:

    Clickupload link is corrupt. File bad at 38 min

  • timt:

    Narrated Movie!

  • Richardexamp: I recently stumbled upon https://asiancasinos.org/ and I obligated to symbolize, it has with dispatc...
  • 23d1:

    ClicknUpload link is missing

  • yopo:

    NitroFlare's link is missing !!!

  • yopo:

    NitroFlare's link is missing !!!

  • yopo:

    NitroFlare's link is missing !!!
    Clicknupload's link is missing !!!

  • yopo:

    NitroFlare's link is missing !!!

  • dragonnightfire: I have tried contacting Rapid Rar to find out what is going on with the server maintainance. I am no...
  • dragonnightfire:

    RR links dead on 5 eps

  • Draveren: hi. can we solve this "server under maintenance" stuff, already? if back in the day i'd ke...
  • Majnon: The links are dead. Please re-upload
  • timt:

    Anyone have the movie "Shoot" (1976) to post?

  • Nightshade: Hey, it appears at least the RMTeam separate episodes and ION's packs for the first two seasons of t...
  • Bigfishguy:

    There's no free option to download this video. Can someone please upload it to clicknupload?

Archives