Sign Up   |   Sign In  

Announcements

Want to support us?
Buy a RapidRAR account from our resellers:
Buy or renew a NitroFlare account via THIS LINK

04/20

2017

1

Comments

Archer S08E03 720p WEB-DL DD5 1 H264-RARBG
[RR/NF/UL/OL/UR]
Size: 636MB mkv H264 (HIGH) / AC3  HD  1280x720

Archer
Click on the image to see full size
[RR/NF/UL/OL/UR] Archer S08E03 720p WEB-DL DD5 1 H264-RARBG (636MB) - Snapshot 1
File Information
[URL=http://imagecurl.com/viewer.php?file=27512854543212325876.png][IMG]http://imagecurl.com/images/27512854543212325876_thumb.png[/IMG][/URL]
[URL=http://imagecurl.com/viewer.php?file=20916993841368280357.png][IMG]http://imagecurl.com/images/20916993841368280357_thumb.png[/IMG][/URL]
[URL=http://imagecurl.com/viewer.php?file=17360493461333130414.png][IMG]http://imagecurl.com/images/17360493461333130414_thumb.png[/IMG][/URL]
[URL=http://imagecurl.com/viewer.php?file=15468059283953252169.png][IMG]http://imagecurl.com/images/15468059283953252169_thumb.png[/IMG][/URL]



[mediainfo]
Video
ID                                       : 1
Format                                   : AVC
Format/Info                              : Advanced Video Codec
Format profile                           : [email protected]
Format settings, CABAC                   : No
Format settings, ReFrames                : 2 frames
Codec ID                                 : V_MPEG4/ISO/AVC
Duration                                 : 20mn 11s
Bit rate                                 : 3 937 Kbps
Width                                    : 1 280 pixels
Height                                   : 720 pixels
Display aspect ratio                     : 16:9
Frame rate mode                          : Constant
Frame rate                               : 23.976 (24000/1001) fps
Color space                              : YUV
Chroma subsampling                       : 4:2:0
Bit depth                                : 8 bits
Scan type                                : Progressive
Bits/(Pixel*Frame)                       : 0.178
Stream size                              : 569 MiB (89%)
Title                                    : Archer.S08E03.720p.WEB-DL.DD5.1.H264-RARBG
Language                                 : English
Default                                  : Yes
Forced                                   : No
Color range                              : Limited
Color primaries                          : BT.709
Transfer characteristics                 : BT.709
Matrix coefficients                      : BT.709

Audio
ID                                       : 2
Format                                   : AC-3
Format/Info                              : Audio Coding 3
Mode extension                           : CM (complete main)
Format settings, Endianness              : Big
Codec ID                                 : A_AC3
Duration                                 : 20mn 11s
Bit rate mode                            : Constant
Bit rate                                 : 384 Kbps
Channel(s)                               : 6 channels
Channel positions                        : Front: L C R, Side: L R, LFE
Sampling rate                            : 48.0 KHz
Frame rate                               : 31.250 fps (1536 spf)
Compression mode                         : Lossy
Stream size                              : 55.5 MiB (9%)
Title                                    : Archer.S08E03.720p.WEB-DL.DD5.1.H264-RARBG
Language                                 : English
Default                                  : Yes
Forced                                   : No

Text #1
ID                                       : 3
Format                                   : UTF-8
Codec ID                                 : S_TEXT/UTF8
Codec ID/Info                            : UTF-8 Plain Text
Language                                 : English
Default                                  : Yes
Forced                                   : No

Text #2
ID                                       : 4
Format                                   : UTF-8
Codec ID                                 : S_TEXT/UTF8
Codec ID/Info                            : UTF-8 Plain Text
Title                                    : SDH
Language                                 : English
Default                                  : No
Forced                                   : No



[/mediainfo]
Download
File Container: MKV
Video/Audio Codec: H264 (HIGH) AC3
Video Resolution: 1280x720
 
 
 
 
 

Show us some love

1 Response to "[RR/NF/UL/OL/UR] Archer S08E03 720p WEB-DL DD5 1 H264-RARBG (636MB)"
05/20/17
02:10:12
Admin

RapidRAR re-uploaded with new RAR file(s) (users who couldn't download some parts need to download all parts again).

Leave a Comment

  • (never displayed)
  •  
        Members don't see captchas. Sign Up / Sign In
  • Notify me via email when someone responds.
  • Subscribe my Feeds
  • Facebook

Latest Episodes

Popular Movies and TV Shows

  • The 100
  • Arrow
  • Fargo
  • John Wick: Chapter 2
  • T2 Trainspotting
  • The Lost Future
  • Real World/Road Rules Challenge
  • The Handmaid's Tale
  • The Flash
  • Logan
  • Idiocracy
  • The Boss Baby
  • Archer
  • White Gold
  • Empire
  • The Assignment
  • Aftermath
  • Russian Lolita
  • Prison Break: Sequel
  • Shots Fired
  • The Americans
  • Bonded by Blood 2
  • Beauty and the Beast
  • Eat Local
  • Better Call Saul

Recent Comments

  • bearman:

    thanks

  • qazequ: @Admin I have the same request as @phaze4000 - could you upload Empire.2015.S03E09.WEB-DL.HEVC.x265 ...
  • EyeInTheSky: clicknupload link seems to have undefined itself into the apocalypse. can't see it anymore, too much...
  • D3m0N81:

    Thanks a tonne for this

    Cheers RMTeam

  • Cafeine: Could you reencode the 720p HULU-NTb in HEVC, please ?
  • chrismac: Ya really annoying since it's not episode 8!! And here I was thinking "Oh goody 2 episodes"...
  • chrismac:

    Ya Maryaam is right this is not episode 8 just another copy of episode 7!

  • xt:

    The subtitles are in chinese

  • Ulrich_27:

    ^yeah, or clicknupload!

  • b007:

    Thank you for the upload!