Sign Up   |   Sign In  
Red Right HandUndead UnluckResident AlienThe Heartbreak KidEasy StreetLaw & Order: Organized CrimeYoung SheldonAvatar: The Last AirbenderSo Help Me ToddLovely, Dark, and DeepTurtles Can FlyHistory of EvilMasters of the AirGhostsLaw & Order Toronto: Criminal IntentJenny Slate: Seasoned ProfessionalEarwormTiger StripesHaloHightownLaw & Order: Special Victims UnitCellphoneMoonedThe Last AirbenderConstellation

Announcements

02/09

2024

1

Comments

Bad Education S05E01 Boxing 720p iP WEB-DL AAC2 0 H 264-NTb
[RR/NF/CU]
Size: 1.1GB mkv H264 (HIGH) / AAC (LC)  HD  1280x720

Bad Education
File Information
[img]http://lookpic.com/cdn/i2/t/0209202408375555-1.jpg[/img]
[img]http://lookpic.com/cdn/i2/t/0209202408375555-2.jpg[/img]
[img]http://lookpic.com/cdn/i2/t/0209202408375555-3.jpg[/img]

General
Unique ID                                : 281539427626243539133261165297544538795 (0xD3CE857BB8E8EED97C4ADA3BE8A12AAB)
Complete name                            : Bad.Education.S05E01.Boxing.720p.iP.WEB-DL.AAC2.0.H.264-NTb.mkv
Format                                   : Matroska
Format version                           : Version 4
File size                                : 1.07 GiB
Duration                                 : 29 min 30 s
Overall bit rate mode                    : Variable
Overall bit rate                         : 5 181 kb/s
Frame rate                               : 50.000 FPS
Encoded date                             : 2024-01-22 19:15:11 UTC
Writing application                      : mkvmerge v82.0 ('I'm The President') 64-bit
Writing library                          : libebml v1.4.5 + libmatroska v1.7.1

Video
ID                                       : 1
Format                                   : AVC
Format/Info                              : Advanced Video Codec
Format profile                           : High@L3.2
Format settings                          : CABAC / 4 Ref Frames
Format settings, CABAC                   : Yes
Format settings, Reference frames        : 4 frames
Codec ID                                 : V_MPEG4/ISO/AVC
Duration                                 : 29 min 30 s
Bit rate mode                            : Variable
Bit rate                                 : 5 048 kb/s
Maximum bit rate                         : 7 605 kb/s
Width                                    : 1 280 pixels
Height                                   : 720 pixels
Display aspect ratio                     : 16:9
Frame rate mode                          : Constant
Frame rate                               : 50.000 FPS
Color space                              : YUV
Chroma subsampling                       : 4:2:0
Bit depth                                : 8 bits
Scan type                                : Progressive
Bits/(Pixel*Frame)                       : 0.110
Stream size                              : 1.04 GiB (97%)
Default                                  : Yes
Forced                                   : No
Color range                              : Limited
Color primaries                          : BT.709
Transfer characteristics                 : BT.709
Matrix coefficients                      : BT.709

Audio
ID                                       : 2
Format                                   : AAC LC
Format/Info                              : Advanced Audio Codec Low Complexity
Codec ID                                 : A_AAC-2
Duration                                 : 29 min 30 s
Bit rate                                 : 128 kb/s
Channel(s)                               : 2 channels
Channel layout                           : L R
Sampling rate                            : 48.0 kHz
Frame rate                               : 46.875 FPS (1024 SPF)
Compression mode                         : Lossy
Stream size                              : 27.0 MiB (2%)
Language                                 : English
Default                                  : Yes
Forced                                   : No

Text
ID                                       : 3
Format                                   : UTF-8
Codec ID                                 : S_TEXT/UTF8
Codec ID/Info                            : UTF-8 Plain Text
Duration                                 : 28 min 56 s
Bit rate                                 : 230 b/s
Frame rate                               : 0.337 FPS
Count of elements                        : 586
Stream size                              : 48.8 KiB (0%)
Language                                 : English
Default                                  : No
Forced                                   : No



Download
File Container: MKV
Video/Audio Codec: H264 (HIGH) AAC (LC)
Video Resolution: 1280x720

1 Response to "[RR/NF/CU] Bad Education S05E01 Boxing 720p iP WEB-DL AAC2 0 H 264-NTb (1.1GB)"
02/09/24
20:00:50
ReadyPlayerOne

Thank You

Please Login to post a comment.
If you don't have any account, please Register.
  • Subscribe my Feeds
  • Facebook

Latest Episodes

Popular Movies and TV Shows

  • Red Right Hand
  • Undead Unluck
  • Resident Alien
  • The Heartbreak Kid
  • Easy Street
  • Law & Order: Organized Crime
  • Young Sheldon
  • Avatar: The Last Airbender
  • So Help Me Todd
  • Lovely, Dark, and Deep
  • Turtles Can Fly
  • History of Evil
  • Masters of the Air
  • Ghosts
  • Law & Order Toronto: Criminal Intent
  • Jenny Slate: Seasoned Professional
  • Earworm
  • Tiger Stripes
  • Halo
  • Hightown
  • Law & Order: Special Victims Unit
  • Cellphone
  • Mooned
  • The Last Airbender
  • Constellation

Recent Comments

Archives