Sign Up   |   Sign In  
S.W.A.T.Blue BloodsReal Time with Bill MaherThe Reckless MomentSimonOne DayFire CountrySpacemanBMFThe RookieMegamind vs. The Doom SyndicateLolaMasters of the AirYoung SheldonHaloThe SeedingDune: Part TwoAlice in TerrorlandGhostsElsbethHightownNorthern ComfortCamp Pleasant LakeThe ChapelResident Alien

Announcements

02/09

2024

1

Comments

Bad Education S05E02 Face-Off 720p iP WEB-DL AAC2 0 H 264-NTb
[RR/NF/CU]
Size: 1.1GB mkv H264 (HIGH) / AAC (LC)  HD  1280x720

Bad Education
File Information
[img]http://lookpic.com/cdn/i2/t/0209202408263936-1.jpg[/img]
[img]http://lookpic.com/cdn/i2/t/0209202408263936-2.jpg[/img]
[img]http://lookpic.com/cdn/i2/t/0209202408263936-3.jpg[/img]

General
Unique ID                                : 232687558093101661798066986118227086068 (0xAF0DFE5B60380B788AC4AA3EEFA6CAF4)
Complete name                            : Bad.Education.S05E02.Face-Off.720p.iP.WEB-DL.AAC2.0.H.264-NTb.mkv
Format                                   : Matroska
Format version                           : Version 4
File size                                : 1.07 GiB
Duration                                 : 29 min 27 s
Overall bit rate mode                    : Variable
Overall bit rate                         : 5 179 kb/s
Frame rate                               : 50.000 FPS
Encoded date                             : 2024-01-22 19:15:16 UTC
Writing application                      : mkvmerge v82.0 ('I'm The President') 64-bit
Writing library                          : libebml v1.4.5 + libmatroska v1.7.1

Video
ID                                       : 1
Format                                   : AVC
Format/Info                              : Advanced Video Codec
Format profile                           : High@L3.2
Format settings                          : CABAC / 4 Ref Frames
Format settings, CABAC                   : Yes
Format settings, Reference frames        : 4 frames
Codec ID                                 : V_MPEG4/ISO/AVC
Duration                                 : 29 min 27 s
Bit rate mode                            : Variable
Bit rate                                 : 5 047 kb/s
Maximum bit rate                         : 7 605 kb/s
Width                                    : 1 280 pixels
Height                                   : 720 pixels
Display aspect ratio                     : 16:9
Frame rate mode                          : Constant
Frame rate                               : 50.000 FPS
Color space                              : YUV
Chroma subsampling                       : 4:2:0
Bit depth                                : 8 bits
Scan type                                : Progressive
Bits/(Pixel*Frame)                       : 0.110
Stream size                              : 1.04 GiB (97%)
Default                                  : Yes
Forced                                   : No
Color range                              : Limited
Color primaries                          : BT.709
Transfer characteristics                 : BT.709
Matrix coefficients                      : BT.709

Audio
ID                                       : 2
Format                                   : AAC LC
Format/Info                              : Advanced Audio Codec Low Complexity
Codec ID                                 : A_AAC-2
Duration                                 : 29 min 27 s
Bit rate                                 : 128 kb/s
Channel(s)                               : 2 channels
Channel layout                           : L R
Sampling rate                            : 48.0 kHz
Frame rate                               : 46.875 FPS (1024 SPF)
Compression mode                         : Lossy
Stream size                              : 27.0 MiB (2%)
Language                                 : English
Default                                  : Yes
Forced                                   : No

Text
ID                                       : 3
Format                                   : UTF-8
Codec ID                                 : S_TEXT/UTF8
Codec ID/Info                            : UTF-8 Plain Text
Duration                                 : 29 min 21 s
Bit rate                                 : 211 b/s
Frame rate                               : 0.347 FPS
Count of elements                        : 612
Stream size                              : 45.4 KiB (0%)
Language                                 : English
Default                                  : No
Forced                                   : No



Download
File Container: MKV
Video/Audio Codec: H264 (HIGH) AAC (LC)
Video Resolution: 1280x720

1 Response to "[RR/NF/CU] Bad Education S05E02 Face-Off 720p iP WEB-DL AAC2 0 H 264-NTb (1.1GB)"
02/09/24
19:01:18
ReadyPlayerOne

Thank You

Please Login to post a comment.
If you don't have any account, please Register.
  • Subscribe my Feeds
  • Facebook
Encoding Queue:  x264  x265

Latest Episodes

Popular Movies and TV Shows

  • S.W.A.T.
  • Blue Bloods
  • Real Time with Bill Maher
  • The Reckless Moment
  • Simon
  • One Day
  • Fire Country
  • Spaceman
  • BMF
  • The Rookie
  • Megamind vs. The Doom Syndicate
  • Lola
  • Masters of the Air
  • Young Sheldon
  • Halo
  • The Seeding
  • Dune: Part Two
  • Alice in Terrorland
  • Ghosts
  • Elsbeth
  • Hightown
  • Northern Comfort
  • Camp Pleasant Lake
  • The Chapel
  • Resident Alien

Recent Comments

  • ruf999:

    hanyou

  • uncabrian: If you can, please upload other seasons of "Eureka" in the same format and size. Much appr...
  • pr4455:

    hi this movie has no audio just commentry

  • asalan:

    please reupload.

  • asalan:

    reupload please.

  • newuser:

    need English Sub that Sync

  • Bud:

    Can we get a re-up on the clicknupload link please? Current link is dead.

Archives