Sign Up   |   Sign In  

Announcements

Want to support us?
Buy a RapidRAR account from our resellers:
Buy or renew a NitroFlare account via THIS LINK

04/18

2017

No

Comments

Bates Motel S05E09 1080p WEB-DL DD5 1 H264-RARBG
[RR/NF/UL]
Size: 1.5GB mkv H264 (HIGH) / AC3  HD  1920x1080

Bates Motel
Click on the image to see full size
[RR/NF/UL] Bates Motel S05E09 1080p WEB-DL DD5 1 H264-RARBG (1.5GB) - Snapshot 1
File Information
[URL=http://imagecurl.com/viewer.php?file=01687836911621056774.png][IMG]http://imagecurl.com/images/01687836911621056774_thumb.png[/IMG][/URL]
[URL=http://imagecurl.com/viewer.php?file=86419983849995957252.png][IMG]http://imagecurl.com/images/86419983849995957252_thumb.png[/IMG][/URL]
[URL=http://imagecurl.com/viewer.php?file=13891947050708256659.png][IMG]http://imagecurl.com/images/13891947050708256659_thumb.png[/IMG][/URL]
[URL=http://imagecurl.com/viewer.php?file=83903540838238321098.png][IMG]http://imagecurl.com/images/83903540838238321098_thumb.png[/IMG][/URL]
[URL=http://imagecurl.com/viewer.php?file=47786040724981168061.png][IMG]http://imagecurl.com/images/47786040724981168061_thumb.png[/IMG][/URL]
[URL=http://imagecurl.com/viewer.php?file=85746586747471513606.png][IMG]http://imagecurl.com/images/85746586747471513606_thumb.png[/IMG][/URL]



[mediainfo]
Video
ID                                       : 1
Format                                   : AVC
Format/Info                              : Advanced Video Codec
Format profile                           : [email protected]
Format settings, CABAC                   : Yes
Format settings, ReFrames                : 4 frames
Codec ID                                 : V_MPEG4/ISO/AVC
Duration                                 : 39mn 24s
Bit rate                                 : 4 952 Kbps
Width                                    : 1 920 pixels
Height                                   : 1 080 pixels
Display aspect ratio                     : 16:9
Frame rate mode                          : Constant
Frame rate                               : 23.976 (24000/1001) fps
Color space                              : YUV
Chroma subsampling                       : 4:2:0
Bit depth                                : 8 bits
Scan type                                : Progressive
Bits/(Pixel*Frame)                       : 0.100
Stream size                              : 1.36 GiB (91%)
Title                                    : Bates.Motel.S05E09.1080p.WEB-DL.DD5.1.H264-RARBG
Language                                 : English
Default                                  : Yes
Forced                                   : No
Color range                              : Limited
Color primaries                          : BT.709
Transfer characteristics                 : BT.709
Matrix coefficients                      : BT.709

Audio
ID                                       : 2
Format                                   : AC-3
Format/Info                              : Audio Coding 3
Mode extension                           : CM (complete main)
Format settings, Endianness              : Big
Codec ID                                 : A_AC3
Duration                                 : 39mn 24s
Bit rate mode                            : Constant
Bit rate                                 : 384 Kbps
Channel(s)                               : 6 channels
Channel positions                        : Front: L C R, Side: L R, LFE
Sampling rate                            : 48.0 KHz
Frame rate                               : 31.250 fps (1536 spf)
Compression mode                         : Lossy
Stream size                              : 108 MiB (7%)
Title                                    : Bates.Motel.S05E09.1080p.WEB-DL.DD5.1.H264-RARBG
Language                                 : English
Default                                  : Yes
Forced                                   : No

Text #1
ID                                       : 3
Format                                   : UTF-8
Codec ID                                 : S_TEXT/UTF8
Codec ID/Info                            : UTF-8 Plain Text
Language                                 : English
Default                                  : Yes
Forced                                   : No

Text #2
ID                                       : 4
Format                                   : UTF-8
Codec ID                                 : S_TEXT/UTF8
Codec ID/Info                            : UTF-8 Plain Text
Title                                    : SDH
Language                                 : English
Default                                  : No
Forced                                   : No



[/mediainfo]
Download
File Container: MKV
Video/Audio Codec: H264 (HIGH) AC3
Video Resolution: 1920x1080
 
 
 

Show us some love

Leave a Comment

  • (never displayed)
  •  
        Members don't see captchas. Sign Up / Sign In
  • Notify me via email when someone responds.
  • Subscribe my Feeds
  • Facebook

Latest Episodes

Popular Movies and TV Shows

  • The Big Bang Theory
  • The Blacklist
  • Dear White People
  • Voice from the Stone
  • The Sex Addict
  • Colossal
  • Supernatural
  • The Last Kingdom
  • Grey's Anatomy
  • A Dark Song
  • Fallen
  • Ikari
  • Riverdale
  • The Catch
  • Scandal
  • Fifty Shades Darker
  • Worry Dolls
  • Unity
  • Fargo
  • Arrow
  • Blindspot
  • The Fate of the Furious
  • Bliss
  • Stratton
  • The Flash

Recent Comments

  • TT:

    uploaded link is dead for all this episode and all others of this series

  • swisspop:

    Video is completely garbled. Waiting for PROPER.

  • tt:

    uploaded links have been removed for all versions of this episode

  • Kirvas:

    The subtitles are Chinese

  • meridian:

    @CharMr
    A free account will let you download files up to 990 MB

  • jwill758:

    Could you please reup the RapidRAR files once again please

  • bigbadbryce: Baskets.S02E02.PROPER.HDTV.x264-KILLERSRapidrar link dead. Could you please re-up.Ciao
  • thaone:

    Thank you

  • thaone:

    Thank you

  • thaone:

    Thank you