Sign Up   |   Sign In  

Announcements

Want to support us?
Buy a RapidRAR account from our resellers:
Buy or renew a NitroFlare account via THIS LINK

04/18

2017

No

Comments

Bates Motel S05E09 720p WEB-DL DD5 1 H264-RARBG
[RR/NF/UL/UR]
Size: 1.2GB mkv H264 (HIGH) / AC3  HD  1280x720

Bates Motel
Click on the image to see full size
[RR/NF/UL/UR] Bates Motel S05E09 720p WEB-DL DD5 1 H264-RARBG (1.2GB) - Snapshot 1
File Information
[URL=http://imagecurl.com/viewer.php?file=80494079045234439482.png][IMG]http://imagecurl.com/images/80494079045234439482_thumb.png[/IMG][/URL]
[URL=http://imagecurl.com/viewer.php?file=37577640913836707669.png][IMG]http://imagecurl.com/images/37577640913836707669_thumb.png[/IMG][/URL]
[URL=http://imagecurl.com/viewer.php?file=48777566507780903288.png][IMG]http://imagecurl.com/images/48777566507780903288_thumb.png[/IMG][/URL]
[URL=http://imagecurl.com/viewer.php?file=41577541066584772466.png][IMG]http://imagecurl.com/images/41577541066584772466_thumb.png[/IMG][/URL]
[URL=http://imagecurl.com/viewer.php?file=43647744986018746344.png][IMG]http://imagecurl.com/images/43647744986018746344_thumb.png[/IMG][/URL]
[URL=http://imagecurl.com/viewer.php?file=40218160005567857962.png][IMG]http://imagecurl.com/images/40218160005567857962_thumb.png[/IMG][/URL]



[mediainfo]
Video
ID                                       : 1
Format                                   : AVC
Format/Info                              : Advanced Video Codec
Format profile                           : [email protected]
Format settings, CABAC                   : No
Format settings, ReFrames                : 2 frames
Codec ID                                 : V_MPEG4/ISO/AVC
Duration                                 : 39mn 24s
Bit rate                                 : 3 988 Kbps
Width                                    : 1 280 pixels
Height                                   : 720 pixels
Display aspect ratio                     : 16:9
Frame rate mode                          : Constant
Frame rate                               : 23.976 (24000/1001) fps
Color space                              : YUV
Chroma subsampling                       : 4:2:0
Bit depth                                : 8 bits
Scan type                                : Progressive
Bits/(Pixel*Frame)                       : 0.181
Stream size                              : 1.10 GiB (89%)
Title                                    : Bates.Motel.S05E09.720p.WEB-DL.DD5.1.H264-RARBG
Language                                 : English
Default                                  : Yes
Forced                                   : No
Color range                              : Limited
Color primaries                          : BT.709
Transfer characteristics                 : BT.709
Matrix coefficients                      : BT.709

Audio
ID                                       : 2
Format                                   : AC-3
Format/Info                              : Audio Coding 3
Mode extension                           : CM (complete main)
Format settings, Endianness              : Big
Codec ID                                 : A_AC3
Duration                                 : 39mn 24s
Bit rate mode                            : Constant
Bit rate                                 : 384 Kbps
Channel(s)                               : 6 channels
Channel positions                        : Front: L C R, Side: L R, LFE
Sampling rate                            : 48.0 KHz
Frame rate                               : 31.250 fps (1536 spf)
Compression mode                         : Lossy
Stream size                              : 108 MiB (9%)
Title                                    : Bates.Motel.S05E09.720p.WEB-DL.DD5.1.H264-RARBG
Language                                 : English
Default                                  : Yes
Forced                                   : No

Text #1
ID                                       : 3
Format                                   : UTF-8
Codec ID                                 : S_TEXT/UTF8
Codec ID/Info                            : UTF-8 Plain Text
Language                                 : English
Default                                  : Yes
Forced                                   : No

Text #2
ID                                       : 4
Format                                   : UTF-8
Codec ID                                 : S_TEXT/UTF8
Codec ID/Info                            : UTF-8 Plain Text
Title                                    : SDH
Language                                 : English
Default                                  : No
Forced                                   : No



[/mediainfo]
Download
File Container: MKV
Video/Audio Codec: H264 (HIGH) AC3
Video Resolution: 1280x720
 
 
 
 

Show us some love

Leave a Comment

  • (never displayed)
  •  
        Members don't see captchas. Sign Up / Sign In
  • Notify me via email when someone responds.
  • Subscribe my Feeds
  • Facebook

Latest Episodes

Popular Movies and TV Shows

  • Doctor Who
  • The Northlander
  • An Unfinished Life
  • The Late Show with Stephen Colbert
  • Ma vie de Courgette
  • The Americans
  • Dragon Ball Super: Doragon bôru cho
  • Neon Joe, Werewolf Hunter
  • Naked Ambition: An R Rated Look at an X Rated Industry
  • John Wick: Chapter 2
  • The Ticket
  • The Dead Files
  • Bloodline
  • Colossal
  • A Cure for Wellness
  • Hinterland
  • T2 Trainspotting
  • Clique
  • War Machine
  • Jamestown
  • Black Widows
  • 12 Monkeys
  • Queen Rock Montreal & Live Aid
  • The Last Word
  • Arrow

Recent Comments