Sign Up   |   Sign In  

Announcements

Want to support us?
Buy a RapidRAR account from our resellers:
Buy or renew a NitroFlare account via THIS LINK
We'll stop uploading files to Uploaded.net in December 2017.
Until further notice, We will continue uploading files to uploaded.net.

04/18

2017

1

Comments

Bates Motel S05E09 WEB-DL x264-RARBG
[RR/NF/UL/OL/OLw/UR/CU]
Size: 209MB mp4 H264 (HIGH) (AVC1) / AAC (LC) (MP4A) 720x400

Bates Motel
Click on the image to see full size
[RR/NF/UL/OL/OLw/UR/CU] Bates Motel S05E09 WEB-DL x264-RARBG (209MB) - Snapshot 1[RR/NF/UL/OL/OLw/UR/CU] Bates Motel S05E09 WEB-DL x264-RARBG (209MB) - Snapshot 2
File Information
[URL]http://www.imdb.com/title/tt2188671/[/URL]
[screenshots]
[URL=http://imagecurl.com/viewer.php?file=03833252711856510676.png][IMG]http://imagecurl.com/images/03833252711856510676_thumb.png[/IMG][/URL]
[URL=http://imagecurl.com/viewer.php?file=25295757574587460243.png][IMG]http://imagecurl.com/images/25295757574587460243_thumb.png[/IMG][/URL]
[URL=http://imagecurl.com/viewer.php?file=00281452266325815539.png][IMG]http://imagecurl.com/images/00281452266325815539_thumb.png[/IMG][/URL]
[URL=http://imagecurl.com/viewer.php?file=71470605712440372342.png][IMG]http://imagecurl.com/images/71470605712440372342_thumb.png[/IMG][/URL]

[/screenshots]


[mediainfo]
Video
ID                                       : 1
Format                                   : AVC
Format/Info                              : Advanced Video Codec
Format profile                           : [email protected]
Format settings, CABAC                   : Yes
Format settings, ReFrames                : 5 frames
Codec ID                                 : avc1
Codec ID/Info                            : Advanced Video Coding
Duration                                 : 39mn 24s
Bit rate                                 : 610 Kbps
Width                                    : 720 pixels
Height                                   : 400 pixels
Display aspect ratio                     : 16:9
Frame rate mode                          : Constant
Frame rate                               : 23.976 (24000/1001) fps
Color space                              : YUV
Chroma subsampling                       : 4:2:0
Bit depth                                : 8 bits
Scan type                                : Progressive
Bits/(Pixel*Frame)                       : 0.088
Stream size                              : 172 MiB (82%)
Title                                    : RARBG.COM - Bates.Motel.S05E09.WEB-DL.x264-RARBG
Writing library                          : x264 core 148 r2597M e86f3a1
 Encoding settings                        : cabac=1 / ref=5 / deblock=1:-1:-1 / analyse=0x3:0x113 / me=umh / subme=9 / psy=1 / psy_rd=1.00:0.15 / mixed_ref=1 / me_range=16 / chroma_me=1 / trellis=2 / 8x8dct=1 / cqm=0 / deadz / fast pskip=1 / chroma_qp_offset=-3 / threads=12 / lookahead_threads=1 / sliced_threads=0 / nr=0 / decimate=1 / interlaced=0 / bluray_compat=0 / c / bframes=3 / b_pyramid=2 / b_adapt=2 / b_bias=0 / direct=3 / weightb=1 / open_gop=0 / weightp=2 / keyint=250 / keyint_min=23 / scenecut=40 / intra_refresh=0 / rc_lookahead=50 / rc=crf / mbtree=1 / crf=19.0 / qcomp=0.60 / qpmin=0 / qpmax=69 / qpstep=4 / ip_ratio=1.40 / aq=1:1.00
Language                                 : English
Encoded date                             : UTC 2017-04-18 09:27:27
Tagged date                              : UTC 2017-04-18 09:27:27

Audio
ID                                       : 2
Format                                   : AAC
Format/Info                              : Advanced Audio Codec
Format profile                           : LC
Codec ID                                 : 40
Duration                                 : 39mn 24s
Duration_LastFrame                       : -11ms
Bit rate mode                            : Constant
Bit rate                                 : 128 Kbps
Channel(s)                               : 2 channels
Channel positions                        : Front: L R
Sampling rate                            : 48.0 KHz
Frame rate                               : 46.875 fps (1024 spf)
Compression mode                         : Lossy
Stream size                              : 36.1 MiB (17%)
Title                                    : RARBG.COM - Bates.Motel.S05E09.WEB-DL.x264-RARBG
Language                                 : English
Default                                  : Yes
Alternate group                          : 1
Encoded date                             : UTC 2017-04-18 09:27:27
Tagged date                              : UTC 2017-04-18 09:27:27



[/mediainfo]
Download
File Container: MP4
Video/Audio Codec: H264 (HIGH) (AVC1) AAC (LC) (MP4A)
Video Resolution: 720x400
Watch Online [MP4]

1 Response to "[RR/NF/UL/OL/OLw/UR/CU] Bates Motel S05E09 WEB-DL x264-RARBG (209MB)"
05/18/17
00:40:04
Admin

RapidRAR re-uploaded with new RAR file(s) (users who couldn't download some parts need to download all parts again).

Leave a Comment

  • (never displayed)
  •  
        Members don't see captchas. Sign Up / Sign In
  • Notify me via email when someone responds.
  • Subscribe my Feeds
  • Facebook

Latest Episodes

Popular Movies and TV Shows

  • The Flash
  • The 100
  • Legion
  • Death Wish
  • Gringo
  • The Bookshop
  • NCIS: Naval Criminal Investigative Service
  • For the People
  • Carter
  • Jagveld
  • Thoroughbreds
  • The Strangers: Prey at Night
  • Bulletproof
  • A Quiet Place
  • Elementary
  • Roseanne
  • Every Day
  • Unbreakable
  • Supergirl
  • iZombie
  • Colony
  • Fahrenheit 451
  • Fen bei ren sheng
  • The Broken Key
  • The Big Bang Theory

Recent Comments

Archives