Sign Up   |   Sign In  
Mayor of KingstownHotel CocaineMy Adventures with SupermanDaaaaaali!Framed by My HusbandLook to the LightInterview with the VampirePrincess PowerBilly the KidOctopussyYou Can Live ForeverA Ring of Endless LightLadies in BlackThe Loud HouseReal Time with Bill MaherKung Fu HustleLicence to KillThere's Something About MaryWWE NXTWalkerThe Bold and the BeautifulVice News Presents: Mass Shooting AmericaInside Out 2My Sexual Abuse: The SitcomThe Daily Show

Announcements

05/26

2024

1

Comments

Beacon 23 S02E08 Disintegration 720p AMZN WEB-DL DDP5 1 H 264-NTb
[RR/NF/CU]
Size: 904MB mkv H264 (HIGH) / EAC3  HD  1280x720

Beacon 23
File Information
[img]http://lookpic.com/cdn/i2/t/0526202406243334-1.jpg[/img]
[img]http://lookpic.com/cdn/i2/t/0526202406243334-2.jpg[/img]
[img]http://lookpic.com/cdn/i2/t/0526202406243334-3.jpg[/img]

General
Unique ID                                : 33932362990802948304264302930146982091 (0x198722A95D0811A73190BEE299C178CB)
Complete name                            : Beacon 23 S02E08 Disintegration 720p AMZN WEB-DL DDP5 1 H 264-NTb.mkv
Format                                   : Matroska
Format version                           : Version 4
File size                                : 904 MiB
Duration                                 : 45 min 43 s
Overall bit rate                         : 2 765 kb/s
Frame rate                               : 23.976 FPS
Writing application                      : mkvmerge v84.0 ('Sleeper') 64-bit
Writing library                          : libebml v1.4.5 + libmatroska v1.7.1

Video
ID                                       : 1
Format                                   : AVC
Format/Info                              : Advanced Video Codec
Format profile                           : High@L3.1
Format settings                          : CABAC / 4 Ref Frames
Format settings, CABAC                   : Yes
Format settings, Reference frames        : 4 frames
Codec ID                                 : V_MPEG4/ISO/AVC
Duration                                 : 45 min 43 s
Bit rate mode                            : Constant
Bit rate                                 : 2 123 kb/s
Nominal bit rate                         : 6 000 kb/s
Width                                    : 1 280 pixels
Height                                   : 720 pixels
Display aspect ratio                     : 16:9
Frame rate mode                          : Constant
Frame rate                               : 23.976 (24000/1001) FPS
Color space                              : YUV
Chroma subsampling                       : 4:2:0
Bit depth                                : 8 bits
Scan type                                : Progressive
Bits/(Pixel*Frame)                       : 0.096
Stream size                              : 694 MiB (77%)
Default                                  : Yes
Forced                                   : No
Color range                              : Limited
Color primaries                          : BT.709
Transfer characteristics                 : BT.709
Matrix coefficients                      : BT.709

Audio
ID                                       : 2
Format                                   : E-AC-3
Format/Info                              : Enhanced AC-3
Commercial name                          : Dolby Digital Plus
Codec ID                                 : A_EAC3
Duration                                 : 45 min 43 s
Bit rate mode                            : Constant
Bit rate                                 : 640 kb/s
Channel(s)                               : 6 channels
Channel layout                           : L R C LFE Ls Rs
Sampling rate                            : 48.0 kHz
Frame rate                               : 31.250 FPS (1536 SPF)
Compression mode                         : Lossy
Stream size                              : 209 MiB (23%)
Language                                 : English (US)
Service kind                             : Complete Main
Default                                  : Yes
Forced                                   : No

Text #1
ID                                       : 3
Format                                   : UTF-8
Codec ID                                 : S_TEXT/UTF8
Codec ID/Info                            : UTF-8 Plain Text
Duration                                 : 44 min 53 s
Bit rate                                 : 52 b/s
Frame rate                               : 0.236 FPS
Count of elements                        : 635
Stream size                              : 17.2 KiB (0%)
Language                                 : English (US)
Default                                  : No
Forced                                   : No

Text #2
ID                                       : 4
Format                                   : UTF-8
Codec ID                                 : S_TEXT/UTF8
Codec ID/Info                            : UTF-8 Plain Text
Duration                                 : 44 min 53 s
Bit rate                                 : 60 b/s
Frame rate                               : 0.290 FPS
Count of elements                        : 782
Stream size                              : 20.0 KiB (0%)
Title                                    : SDH
Language                                 : English (US)
Default                                  : No
Forced                                   : No



Download
File Container: MKV
Video/Audio Codec: H264 (HIGH) EAC3
Video Resolution: 1280x720

1 Response to "[RR/NF/CU] Beacon 23 S02E08 Disintegration 720p AMZN WEB-DL DDP5 1 H 264-NTb (904MB)"
05/26/24
06:51:12
ReadyPlayerOne

Thank You

Please Login to post a comment.
If you don't have any account, please Register.
  • Subscribe my Feeds
  • Facebook
Encoding Queue:  x264  x265

Latest Episodes

Popular Movies and TV Shows

  • Mayor of Kingstown
  • Hotel Cocaine
  • My Adventures with Superman
  • Daaaaaali!
  • Framed by My Husband
  • Look to the Light
  • Interview with the Vampire
  • Princess Power
  • Billy the Kid
  • Octopussy
  • You Can Live Forever
  • A Ring of Endless Light
  • Ladies in Black
  • The Loud House
  • Real Time with Bill Maher
  • Kung Fu Hustle
  • Licence to Kill
  • There's Something About Mary
  • WWE NXT
  • Walker
  • The Bold and the Beautiful
  • Vice News Presents: Mass Shooting America
  • Inside Out 2
  • My Sexual Abuse: The Sitcom
  • The Daily Show

Recent Comments

Archives