Sign Up   |   Sign In  
ShogunNCISImmaculateNCIS: Hawai'iThe Fantastic Journey of Margot & MargueriteSpring BreakersThe NeighborhoodBob Hearts AbisholaSweet DreamsAll AmericanThe Crow: SalvationThe 100th: Billy Joel at Madison Square Garden - The Greatest Arena Run of All TimeThe SympathizerDune: Part TwoTrackerFamily GuyKiller Fortune TellerHundreds of BeaversThe Great NorthModel HouseWhen Calls the HeartThe Bold and the BeautifulAbba: How They Won EurovisionKurt Cobain: Moments That Shook MusicFallout

Announcements

02/18

2024

1

Comments

Belgravia The Next Chapter S01E05 Episode Five 720p AMZN WEB-DL DDP5 1 H 264-NTb
[RR/NF/CU]
Size: 1.1GB mkv H264 (HIGH) / EAC3  HD  1280x720

Belgravia: The Next Chapter
File Information
[img]http://lookpic.com/cdn/i2/t/0218202408052043-1.jpg[/img]
[img]http://lookpic.com/cdn/i2/t/0218202408052043-2.jpg[/img]
[img]http://lookpic.com/cdn/i2/t/0218202408052043-3.jpg[/img]

General
Unique ID                                : 1973563642044485142703793756188507046 (0x17C18333802BDD09146A0091B58FBA6)
Complete name                            : Belgravia.The.Next.Chapter.S01E05.Episode.Five.720p.AMZN.WEB-DL.DDP5.1.H.264-NTb.mkv
Format                                   : Matroska
Format version                           : Version 4
File size                                : 1.07 GiB
Duration                                 : 52 min 27 s
Overall bit rate                         : 2 928 kb/s
Frame rate                               : 23.976 FPS
Writing application                      : mkvmerge v81.0 ('Milliontown') 64-bit
Writing library                          : libebml v1.4.4 + libmatroska v1.7.1

Video
ID                                       : 1
Format                                   : AVC
Format/Info                              : Advanced Video Codec
Format profile                           : High@L3.1
Format settings                          : CABAC / 4 Ref Frames
Format settings, CABAC                   : Yes
Format settings, Reference frames        : 4 frames
Codec ID                                 : V_MPEG4/ISO/AVC
Duration                                 : 52 min 27 s
Bit rate mode                            : Constant
Bit rate                                 : 2 286 kb/s
Nominal bit rate                         : 6 000 kb/s
Width                                    : 1 280 pixels
Height                                   : 720 pixels
Display aspect ratio                     : 16:9
Frame rate mode                          : Constant
Frame rate                               : 23.976 (24000/1001) FPS
Color space                              : YUV
Chroma subsampling                       : 4:2:0
Bit depth                                : 8 bits
Scan type                                : Progressive
Bits/(Pixel*Frame)                       : 0.103
Stream size                              : 858 MiB (78%)
Default                                  : Yes
Forced                                   : No
Color range                              : Limited
Color primaries                          : BT.709
Transfer characteristics                 : BT.709
Matrix coefficients                      : BT.709

Audio
ID                                       : 2
Format                                   : E-AC-3
Format/Info                              : Enhanced AC-3
Commercial name                          : Dolby Digital Plus
Codec ID                                 : A_EAC3
Duration                                 : 52 min 27 s
Bit rate mode                            : Constant
Bit rate                                 : 640 kb/s
Channel(s)                               : 6 channels
Channel layout                           : L R C LFE Ls Rs
Sampling rate                            : 48.0 kHz
Frame rate                               : 31.250 FPS (1536 SPF)
Compression mode                         : Lossy
Stream size                              : 240 MiB (22%)
Language                                 : English (GB)
Service kind                             : Complete Main
Default                                  : Yes
Forced                                   : No

Text #1
ID                                       : 3
Format                                   : UTF-8
Codec ID                                 : S_TEXT/UTF8
Codec ID/Info                            : UTF-8 Plain Text
Duration                                 : 50 min 46 s
Bit rate                                 : 59 b/s
Frame rate                               : 0.233 FPS
Count of elements                        : 710
Stream size                              : 22.1 KiB (0%)
Language                                 : English (GB)
Default                                  : No
Forced                                   : No

Text #2
ID                                       : 4
Format                                   : UTF-8
Codec ID                                 : S_TEXT/UTF8
Codec ID/Info                            : UTF-8 Plain Text
Duration                                 : 50 min 56 s
Bit rate                                 : 64 b/s
Frame rate                               : 0.264 FPS
Count of elements                        : 808
Stream size                              : 24.0 KiB (0%)
Title                                    : SDH
Language                                 : English (GB)
Default                                  : No
Forced                                   : No

Menu
00:00:00.000                             : en:Studio Logo
00:00:14.000                             : en:Ratings
00:00:19.000                             : en:Studio Logo
00:00:20.000                             : en:Previously On
00:01:13.000                             : en:Opening Credits
00:01:52.000                             : en:Title Sequence
00:02:16.000                             : en:Scene 7
00:02:27.000                             : en:Scene 8
00:03:02.000                             : en:Scene 9
00:03:58.000                             : en:Scene 10
00:05:06.000                             : en:Scene 11
00:05:41.000                             : en:Scene 12
00:06:03.000                             : en:Scene 13
00:07:22.000                             : en:Scene 14
00:08:00.000                             : en:Scene 15
00:08:34.000                             : en:Scene 16
00:09:28.000                             : en:Scene 17
00:10:58.000                             : en:Scene 18
00:11:49.000                             : en:Scene 19
00:12:19.000                             : en:Scene 20
00:14:41.000                             : en:Scene 21
00:15:36.000                             : en:Scene 22
00:16:07.000                             : en:Scene 23
00:16:29.000                             : en:Scene 24
00:17:09.000                             : en:Scene 25
00:17:41.000                             : en:Scene 26
00:19:03.000                             : en:Scene 27
00:19:07.000                             : en:Scene 28
00:19:52.000                             : en:Scene 29
00:22:42.000                             : en:Scene 30
00:23:55.000                             : en:Scene 31
00:25:12.000                             : en:Scene 32
00:26:14.000                             : en:Scene 33
00:27:03.000                             : en:Scene 34
00:27:41.000                             : en:Scene 35
00:28:48.000                             : en:Scene 36
00:31:15.000                             : en:Scene 37
00:31:44.000                             : en:Scene 38
00:32:38.000                             : en:Scene 39
00:32:54.000                             : en:Scene 40
00:33:29.000                             : en:Scene 41
00:35:24.000                             : en:Scene 42
00:36:35.000                             : en:Scene 43
00:38:45.000                             : en:Scene 44
00:39:07.000                             : en:Scene 45
00:39:39.000                             : en:Scene 46
00:40:05.000                             : en:Scene 47
00:41:26.000                             : en:Scene 48
00:42:13.000                             : en:Scene 49
00:42:50.000                             : en:Scene 50
00:43:09.000                             : en:Scene 51
00:43:41.000                             : en:Scene 52
00:44:12.000                             : en:Scene 53
00:44:49.000                             : en:Scene 54
00:45:27.000                             : en:Scene 55
00:46:18.000                             : en:Scene 56
00:49:12.000                             : en:Scene 57
00:49:30.000                             : en:Scene 58
00:50:40.000                             : en:Scene 59
00:51:12.000                             : en:End Credits



Download
File Container: MKV
Video/Audio Codec: H264 (HIGH) EAC3
Video Resolution: 1280x720

1 Response to "[RR/NF/CU] Belgravia The Next Chapter S01E05 Episode Five 720p AMZN WEB-DL DDP5 1 H 264-NTb (1.1GB)"
02/18/24
19:50:41
ReadyPlayerOne

Thank You

Please Login to post a comment.
If you don't have any account, please Register.
  • Subscribe my Feeds
  • Facebook
Encoding Queue:  x264  x265

Latest Episodes

Popular Movies and TV Shows

  • Shogun
  • NCIS
  • Immaculate
  • NCIS: Hawai'i
  • The Fantastic Journey of Margot & Marguerite
  • Spring Breakers
  • The Neighborhood
  • Bob Hearts Abishola
  • Sweet Dreams
  • All American
  • The Crow: Salvation
  • The 100th: Billy Joel at Madison Square Garden - The Greatest Arena Run of All Time
  • The Sympathizer
  • Dune: Part Two
  • Tracker
  • Family Guy
  • Killer Fortune Teller
  • Hundreds of Beavers
  • The Great North
  • Model House
  • When Calls the Heart
  • The Bold and the Beautiful
  • Abba: How They Won Eurovision
  • Kurt Cobain: Moments That Shook Music
  • Fallout

Recent Comments

  • kellym2: Why am I getting "Server is in maintenance mode" on some episodes of a series and not on o...
  • Bud:

    Are you ever going to put up Thursday's episode with Liev Schreiber?

  • alp-engin:

    When will that maintenance be over? Please...

  • mentalityx:

    Rad bloke

  • DownloadHostInspector:

    so far these RMTeam uploads always have a working link. DownloadHostInspector approved!

  • DownloadHostInspector:

    ah yes, this upload has a host that works. clicknupload. DownloadHostInspector approved!

  • DownloadHostInspector: Why are all the download hosts trash? none of them let you download it
  • Qua4ratic:

    clicknupload link plz

  • ppoo:

    Please, can you add "Real Time with Bill Maher S22E11" ??

  • theahtisham:

    Kindly upload Ep. 3 and 4 as well.

Archives