Sign Up   |   Sign In  

Announcements

Want to support us?
Buy a RapidRAR account from our resellers:
Buy or renew a NitroFlare account via THIS LINK
We'll stop uploading files to Uploaded.net in December 2017.
Until further notice, We will continue uploading files to uploaded.net.

04/18

2017

No

Comments

Better Call Saul S03E02 1080p WEB-DL DD5 1 H264-RARBG
[RR/NF/UL]
Size: 2GB mkv H264 (HIGH) / AC3  HD  1916x1076

Better Call Saul
Click on the image to see full size
[RR/NF/UL] Better Call Saul S03E02 1080p WEB-DL DD5 1 H264-RARBG (2GB) - Snapshot 1
File Information
[URL=http://imagecurl.com/viewer.php?file=03637701205654982820.png][IMG]http://imagecurl.com/images/03637701205654982820_thumb.png[/IMG][/URL]
[URL=http://imagecurl.com/viewer.php?file=09376290569009715029.png][IMG]http://imagecurl.com/images/09376290569009715029_thumb.png[/IMG][/URL]
[URL=http://imagecurl.com/viewer.php?file=46447153574132334767.png][IMG]http://imagecurl.com/images/46447153574132334767_thumb.png[/IMG][/URL]
[URL=http://imagecurl.com/viewer.php?file=84117947910354507034.png][IMG]http://imagecurl.com/images/84117947910354507034_thumb.png[/IMG][/URL]
[URL=http://imagecurl.com/viewer.php?file=82084083094073391461.png][IMG]http://imagecurl.com/images/82084083094073391461_thumb.png[/IMG][/URL]
[URL=http://imagecurl.com/viewer.php?file=59168997212989155724.png][IMG]http://imagecurl.com/images/59168997212989155724_thumb.png[/IMG][/URL]



[mediainfo]
Video
ID                                       : 1
Format                                   : AVC
Format/Info                              : Advanced Video Codec
Format profile                           : [email protected]
Format settings, CABAC                   : Yes
Format settings, ReFrames                : 4 frames
Codec ID                                 : V_MPEG4/ISO/AVC
Duration                                 : 51mn 22s
Bit rate                                 : 5 122 Kbps
Width                                    : 1 916 pixels
Height                                   : 1 076 pixels
Display aspect ratio                     : 16:9
Frame rate mode                          : Constant
Frame rate                               : 23.976 (24000/1001) fps
Color space                              : YUV
Chroma subsampling                       : 4:2:0
Bit depth                                : 8 bits
Scan type                                : Progressive
Bits/(Pixel*Frame)                       : 0.104
Stream size                              : 1.84 GiB (91%)
Title                                    : Better.Call.Saul.S03E02.1080p.WEB-DL.DD5.1.H264-RARBG
Language                                 : English
Default                                  : Yes
Forced                                   : No
Color range                              : Limited
Color primaries                          : BT.709
Transfer characteristics                 : BT.709
Matrix coefficients                      : BT.709

Audio
ID                                       : 2
Format                                   : AC-3
Format/Info                              : Audio Coding 3
Mode extension                           : CM (complete main)
Format settings, Endianness              : Big
Codec ID                                 : A_AC3
Duration                                 : 51mn 22s
Bit rate mode                            : Constant
Bit rate                                 : 384 Kbps
Channel(s)                               : 6 channels
Channel positions                        : Front: L C R, Side: L R, LFE
Sampling rate                            : 48.0 KHz
Frame rate                               : 31.250 fps (1536 spf)
Compression mode                         : Lossy
Stream size                              : 141 MiB (7%)
Title                                    : Better.Call.Saul.S03E02.1080p.WEB-DL.DD5.1.H264-RARBG
Language                                 : English
Default                                  : Yes
Forced                                   : No

Text #1
ID                                       : 3
Format                                   : UTF-8
Codec ID                                 : S_TEXT/UTF8
Codec ID/Info                            : UTF-8 Plain Text
Language                                 : English
Default                                  : Yes
Forced                                   : No

Text #2
ID                                       : 4
Format                                   : UTF-8
Codec ID                                 : S_TEXT/UTF8
Codec ID/Info                            : UTF-8 Plain Text
Title                                    : SDH
Language                                 : English
Default                                  : No
Forced                                   : No



[/mediainfo]
Download
File Container: MKV
Video/Audio Codec: H264 (HIGH) AC3
Video Resolution: 1916x1076

Leave a Comment

  • (never displayed)
  •  
        Members don't see captchas. Sign Up / Sign In
  • Notify me via email when someone responds.
  • Subscribe my Feeds
  • Facebook

Latest Episodes

Popular Movies and TV Shows

  • The Blacklist
  • The Expanse
  • Archer
  • Fifty Shades Freed
  • Incontrol
  • Sweet 16
  • Krypton
  • Suits
  • The Americans
  • Bombshell: The Hedy Lamarr Story
  • Boku no hatsukoi wo kimi ni sasagu
  • Killer Klowns from Outer Space
  • The Handmaid's Tale
  • The 100
  • Designated Survivor
  • Yeom-lyeok
  • Gei ba ba de xin
  • Goodfellas
  • The Flash
  • Legion
  • Lethal Weapon
  • The Magic Pill
  • Batman Ninja
  • Monkey Farm
  • The Big Bang Theory

Recent Comments

  • Switchbaker: So hey is this the un-HC-Russian-CelPhone-Subtitled uncensored Tits and ass version? Seriously, I h...
  • tony74111:

    Oh, Thanksyou !!!! I didn't see this one !!! Thanks !!!!

  • tony74111:

    could you add x265 720p web version without the LOGO please ?

  • mda:

    1080p HEVC Please

  • mda:

    1080p HEVC Please

  • tony74111:

    Thanks for x265 720p !!!!! Everyone use them, smaller file and 4x better picture !!!!

  • tony74111:

    Thanks for x265, and the no logo version too !!!!! Thanks !!!!!

  • tony74111:

    Thanks for x265 720p !!!

  • newuser:

    x265 720p pls

  • newuser:

    x265 720p pls

Archives