Sign Up   |   Sign In  

Announcements

Want to support us?
Buy a RapidRAR account from our resellers:
Buy or renew a NitroFlare account via THIS LINK
We'll stop uploading files to Uploaded.net in December 2017.
Until further notice, We will continue uploading files to uploaded.net.

04/18

2017

No

Comments

Better Call Saul S03E02 720p WEB-DL DD5 1 H264-RARBG
[RR/NF/UL/UR]
Size: 1.6GB mkv H264 (HIGH) / AC3  HD  1280x718

Better Call Saul
Click on the image to see full size
[RR/NF/UL/UR] Better Call Saul S03E02 720p WEB-DL DD5 1 H264-RARBG (1.6GB) - Snapshot 1
File Information
[URL=http://imagecurl.com/viewer.php?file=51893503103479314113.png][IMG]http://imagecurl.com/images/51893503103479314113_thumb.png[/IMG][/URL]
[URL=http://imagecurl.com/viewer.php?file=32790411919468075633.png][IMG]http://imagecurl.com/images/32790411919468075633_thumb.png[/IMG][/URL]
[URL=http://imagecurl.com/viewer.php?file=37321067927012277312.png][IMG]http://imagecurl.com/images/37321067927012277312_thumb.png[/IMG][/URL]
[URL=http://imagecurl.com/viewer.php?file=01224159985622100698.png][IMG]http://imagecurl.com/images/01224159985622100698_thumb.png[/IMG][/URL]
[URL=http://imagecurl.com/viewer.php?file=40484812607121752616.png][IMG]http://imagecurl.com/images/40484812607121752616_thumb.png[/IMG][/URL]
[URL=http://imagecurl.com/viewer.php?file=16818668433344690615.png][IMG]http://imagecurl.com/images/16818668433344690615_thumb.png[/IMG][/URL]



[mediainfo]
Video
ID                                       : 1
Format                                   : AVC
Format/Info                              : Advanced Video Codec
Format profile                           : [email protected]
Format settings, CABAC                   : No
Format settings, ReFrames                : 2 frames
Codec ID                                 : V_MPEG4/ISO/AVC
Duration                                 : 51mn 22s
Bit rate                                 : 3 978 Kbps
Width                                    : 1 280 pixels
Height                                   : 718 pixels
Display aspect ratio                     : 16:9
Frame rate mode                          : Constant
Frame rate                               : 23.976 (24000/1001) fps
Color space                              : YUV
Chroma subsampling                       : 4:2:0
Bit depth                                : 8 bits
Scan type                                : Progressive
Bits/(Pixel*Frame)                       : 0.181
Stream size                              : 1.43 GiB (89%)
Title                                    : Better.Call.Saul.S03E02.720p.WEB-DL.DD5.1.H264-RARBG
Language                                 : English
Default                                  : Yes
Forced                                   : No
Color range                              : Limited
Color primaries                          : BT.709
Transfer characteristics                 : BT.709
Matrix coefficients                      : BT.709

Audio
ID                                       : 2
Format                                   : AC-3
Format/Info                              : Audio Coding 3
Mode extension                           : CM (complete main)
Format settings, Endianness              : Big
Codec ID                                 : A_AC3
Duration                                 : 51mn 22s
Bit rate mode                            : Constant
Bit rate                                 : 384 Kbps
Channel(s)                               : 6 channels
Channel positions                        : Front: L C R, Side: L R, LFE
Sampling rate                            : 48.0 KHz
Frame rate                               : 31.250 fps (1536 spf)
Compression mode                         : Lossy
Stream size                              : 141 MiB (9%)
Title                                    : Better.Call.Saul.S03E02.720p.WEB-DL.DD5.1.H264-RARBG
Language                                 : English
Default                                  : Yes
Forced                                   : No

Text #1
ID                                       : 3
Format                                   : UTF-8
Codec ID                                 : S_TEXT/UTF8
Codec ID/Info                            : UTF-8 Plain Text
Language                                 : English
Default                                  : Yes
Forced                                   : No

Text #2
ID                                       : 4
Format                                   : UTF-8
Codec ID                                 : S_TEXT/UTF8
Codec ID/Info                            : UTF-8 Plain Text
Title                                    : SDH
Language                                 : English
Default                                  : No
Forced                                   : No



[/mediainfo]
Download
File Container: MKV
Video/Audio Codec: H264 (HIGH) AC3
Video Resolution: 1280x718

Leave a Comment

  • (never displayed)
  •  
        Members don't see captchas. Sign Up / Sign In
  • Notify me via email when someone responds.
  • Subscribe my Feeds
  • Facebook

Latest Episodes

Popular Movies and TV Shows

  • Batman: Gotham by Gaslight
  • Supergirl
  • Scorpion
  • Corporate
  • Suburbicon
  • Tragedy Girls
  • Lucifer
  • Thor: Ragnarok
  • The Alienist
  • The Good Doctor
  • Only the Brave
  • The Post
  • The Brave
  • Mosaic
  • The Resident
  • Wastelander
  • Resident Evil: Vendetta
  • The Rocket
  • Valor
  • Kevin Can Wait
  • Star Trek: Discovery
  • American Satan
  • Army of One
  • Kill Switch
  • Shameless

Recent Comments