Sign Up   |   Sign In  
This TownThe ChannelThe Bellboy and the PlaygirlsYannickRoadkillThe FableA Very Royal Crisis: Countdown to AbdicationShogunNinja KamuiResident AlienThe Ace and the ScoutOne for the RoadBeacon 23ParishSaturday Night LiveFantastic Four: Rise of the Silver SurferImmoral WomenWillowFalloutGrey's AnatomyS.W.A.T.Riddle of FirePacific Rim: UprisingScrambledFBI

Announcements

03/01

2024

1

Comments

BMF S03E01 Detroit vs Everybody 720p AMZN WEB-DL DDP5 1 H 264-NTb
[RR/NF/CU]
Size: 1.6GB mkv H264 (HIGH) / EAC3  HD  1280x720

BMF
File Information
[img]http://lookpic.com/cdn/i2/t/0301202406294828-1.jpg[/img]
[img]http://lookpic.com/cdn/i2/t/0301202406294828-2.jpg[/img]
[img]http://lookpic.com/cdn/i2/t/0301202406294828-3.jpg[/img]

General
Unique ID                                : 319454773830149110098838834997666939254 (0xF054C060F923A7DE9EE4D88E4F228176)
Complete name                            : BMF.S03E01.Detroit.vs.Everybody.720p.AMZN.WEB-DL.DDP5.1.H.264-NTb.mkv
Format                                   : Matroska
Format version                           : Version 4
File size                                : 1.65 GiB
Duration                                 : 52 min 10 s
Overall bit rate                         : 4 516 kb/s
Frame rate                               : 23.976 FPS
Writing application                      : mkvmerge v81.0 ('Milliontown') 64-bit
Writing library                          : libebml v1.4.4 + libmatroska v1.7.1

Video
ID                                       : 1
Format                                   : AVC
Format/Info                              : Advanced Video Codec
Format profile                           : High@L3.1
Format settings                          : CABAC / 4 Ref Frames
Format settings, CABAC                   : Yes
Format settings, Reference frames        : 4 frames
Codec ID                                 : V_MPEG4/ISO/AVC
Duration                                 : 52 min 10 s
Bit rate mode                            : Constant
Bit rate                                 : 4 000 kb/s
Width                                    : 1 280 pixels
Height                                   : 720 pixels
Display aspect ratio                     : 16:9
Frame rate mode                          : Constant
Frame rate                               : 23.976 (24000/1001) FPS
Color space                              : YUV
Chroma subsampling                       : 4:2:0
Bit depth                                : 8 bits
Scan type                                : Progressive
Bits/(Pixel*Frame)                       : 0.181
Stream size                              : 1.41 GiB (86%)
Default                                  : Yes
Forced                                   : No
Color range                              : Limited
Color primaries                          : BT.709
Transfer characteristics                 : BT.709
Matrix coefficients                      : BT.709

Audio
ID                                       : 2
Format                                   : E-AC-3
Format/Info                              : Enhanced AC-3
Commercial name                          : Dolby Digital Plus
Codec ID                                 : A_EAC3
Duration                                 : 52 min 10 s
Bit rate mode                            : Constant
Bit rate                                 : 640 kb/s
Channel(s)                               : 6 channels
Channel layout                           : L R C LFE Ls Rs
Sampling rate                            : 48.0 kHz
Frame rate                               : 31.250 FPS (1536 SPF)
Compression mode                         : Lossy
Stream size                              : 239 MiB (14%)
Language                                 : English (US)
Service kind                             : Complete Main
Default                                  : Yes
Forced                                   : No

Text #1
ID                                       : 3
Format                                   : UTF-8
Codec ID                                 : S_TEXT/UTF8
Codec ID/Info                            : UTF-8 Plain Text
Duration                                 : 51 min 15 s
Bit rate                                 : 104 b/s
Frame rate                               : 0.385 FPS
Count of elements                        : 1184
Stream size                              : 39.3 KiB (0%)
Language                                 : English (US)
Default                                  : No
Forced                                   : No

Text #2
ID                                       : 4
Format                                   : UTF-8
Codec ID                                 : S_TEXT/UTF8
Codec ID/Info                            : UTF-8 Plain Text
Duration                                 : 51 min 15 s
Bit rate                                 : 111 b/s
Frame rate                               : 0.421 FPS
Count of elements                        : 1294
Stream size                              : 41.7 KiB (0%)
Title                                    : SDH
Language                                 : English (US)
Default                                  : No
Forced                                   : No

Text #3
ID                                       : 5
Format                                   : UTF-8
Codec ID                                 : S_TEXT/UTF8
Codec ID/Info                            : UTF-8 Plain Text
Duration                                 : 51 min 16 s
Bit rate                                 : 106 b/s
Frame rate                               : 0.389 FPS
Count of elements                        : 1196
Stream size                              : 39.8 KiB (0%)
Language                                 : Spanish (Latin America)
Default                                  : No
Forced                                   : No

Text #4
ID                                       : 6
Format                                   : UTF-8
Codec ID                                 : S_TEXT/UTF8
Codec ID/Info                            : UTF-8 Plain Text
Duration                                 : 51 min 17 s
Bit rate                                 : 113 b/s
Frame rate                               : 0.423 FPS
Count of elements                        : 1301
Stream size                              : 42.6 KiB (0%)
Title                                    : SDH
Language                                 : Spanish (Latin America)
Default                                  : No
Forced                                   : No



Download
File Container: MKV
Video/Audio Codec: H264 (HIGH) EAC3
Video Resolution: 1280x720

1 Response to "[RR/NF/CU] BMF S03E01 Detroit vs Everybody 720p AMZN WEB-DL DDP5 1 H 264-NTb (1.6GB)"
03/01/24
08:24:06
ReadyPlayerOne

Thank You

Please Login to post a comment.
If you don't have any account, please Register.
  • Subscribe my Feeds
  • Facebook
Encoding Queue:  x264  x265

Latest Episodes

Popular Movies and TV Shows

  • This Town
  • The Channel
  • The Bellboy and the Playgirls
  • Yannick
  • Roadkill
  • The Fable
  • A Very Royal Crisis: Countdown to Abdication
  • Shogun
  • Ninja Kamui
  • Resident Alien
  • The Ace and the Scout
  • One for the Road
  • Beacon 23
  • Parish
  • Saturday Night Live
  • Fantastic Four: Rise of the Silver Surfer
  • Immoral Women
  • Willow
  • Fallout
  • Grey's Anatomy
  • S.W.A.T.
  • Riddle of Fire
  • Pacific Rim: Uprising
  • Scrambled
  • FBI

Recent Comments

  • mentalityx:

    Rad bloke

  • DownloadHostInspector:

    so far these RMTeam uploads always have a working link. DownloadHostInspector approved!

  • DownloadHostInspector:

    ah yes, this upload has a host that works. clicknupload. DownloadHostInspector approved!

  • DownloadHostInspector: Why are all the download hosts trash? none of them let you download it
  • Qua4ratic:

    clicknupload link plz

  • ppoo:

    Please, can you add "Real Time with Bill Maher S22E11" ??

  • theahtisham:

    Kindly upload Ep. 3 and 4 as well.

  • Kudzu: Update on sound issue, File's codec info says stereo but is only a the left channel If I switch i...
  • Admin:

    kang
    Getting error while encoding, sorry

Archives