Sign Up   |   Sign In  
ShogunSex Before the InternetNinja KamuiLegend of the Lost LocketFantastic Four: Rise of the Silver SurferTenetBeacon 23ParishSaturday Night LiveBreaking Girl CodeScrambledSin City: A Dame to Kill ForImmoral WomenS.W.A.T.WillowBlue BloodsRiddle of FireYoung SheldonFalloutGrey's AnatomyStar Trek: DiscoveryPacific Rim: UprisingWhiplashT2 TrainspottingSugar

Announcements

02/27

2024

1

Comments

Bob Hearts Abishola S05E03 The Devils Hot Tub 1080p AMZN WEB-DL DDP5 1 H 264-NTb
[RR/NF/CU]
Size: 1.3GB mkv H264 (HIGH) / EAC3  HD  1920x1080

Bob Hearts Abishola
File Information
[img]http://lookpic.com/cdn/i2/t/0227202411553119-1.jpg[/img]
[img]http://lookpic.com/cdn/i2/t/0227202411553119-2.jpg[/img]
[img]http://lookpic.com/cdn/i2/t/0227202411553119-3.jpg[/img]

General
Unique ID                                : 115505469857828883703587480399239957949 (0x56E58B5829102BA2315844B1AEAFCDBD)
Complete name                            : Bob.Hearts.Abishola.S05E03.The.Devils.Hot.Tub.1080p.AMZN.WEB-DL.DDP5.1.H.264-NTb.mkv
Format                                   : Matroska
Format version                           : Version 4
File size                                : 1.29 GiB
Duration                                 : 18 min 28 s
Overall bit rate                         : 9 972 kb/s
Frame rate                               : 23.976 FPS
Writing application                      : mkvmerge v81.0 ('Milliontown') 64-bit
Writing library                          : libebml v1.4.4 + libmatroska v1.7.1

Video
ID                                       : 1
Format                                   : AVC
Format/Info                              : Advanced Video Codec
Format profile                           : High@L4
Format settings                          : CABAC / 4 Ref Frames
Format settings, CABAC                   : Yes
Format settings, Reference frames        : 4 frames
Codec ID                                 : V_MPEG4/ISO/AVC
Duration                                 : 18 min 28 s
Bit rate mode                            : Constant
Bit rate                                 : 9 330 kb/s
Nominal bit rate                         : 10 000 kb/s
Width                                    : 1 920 pixels
Height                                   : 1 080 pixels
Display aspect ratio                     : 16:9
Frame rate mode                          : Constant
Frame rate                               : 23.976 (24000/1001) FPS
Color space                              : YUV
Chroma subsampling                       : 4:2:0
Bit depth                                : 8 bits
Scan type                                : Progressive
Bits/(Pixel*Frame)                       : 0.188
Stream size                              : 1.20 GiB (94%)
Default                                  : Yes
Forced                                   : No
Color range                              : Limited
Color primaries                          : BT.709
Transfer characteristics                 : BT.709
Matrix coefficients                      : BT.709

Audio
ID                                       : 2
Format                                   : E-AC-3
Format/Info                              : Enhanced AC-3
Commercial name                          : Dolby Digital Plus
Codec ID                                 : A_EAC3
Duration                                 : 18 min 28 s
Bit rate mode                            : Constant
Bit rate                                 : 640 kb/s
Channel(s)                               : 6 channels
Channel layout                           : L R C LFE Ls Rs
Sampling rate                            : 48.0 kHz
Frame rate                               : 31.250 FPS (1536 SPF)
Compression mode                         : Lossy
Stream size                              : 84.6 MiB (6%)
Language                                 : English (US)
Service kind                             : Complete Main
Default                                  : Yes
Forced                                   : No

Text #1
ID                                       : 3
Format                                   : UTF-8
Codec ID                                 : S_TEXT/UTF8
Codec ID/Info                            : UTF-8 Plain Text
Duration                                 : 17 min 55 s
Bit rate                                 : 81 b/s
Frame rate                               : 0.366 FPS
Count of elements                        : 394
Stream size                              : 10.7 KiB (0%)
Language                                 : English (US)
Default                                  : No
Forced                                   : No

Text #2
ID                                       : 4
Format                                   : UTF-8
Codec ID                                 : S_TEXT/UTF8
Codec ID/Info                            : UTF-8 Plain Text
Duration                                 : 17 min 55 s
Bit rate                                 : 83 b/s
Frame rate                               : 0.374 FPS
Count of elements                        : 402
Stream size                              : 11.0 KiB (0%)
Title                                    : SDH
Language                                 : English (US)
Default                                  : No
Forced                                   : No

Menu
00:00:00.000                             : en:Scene 1
00:02:10.000                             : en:Scene 2
00:03:26.000                             : en:Scene 3
00:04:21.000                             : en:Scene 4
00:05:36.000                             : en:Scene 5
00:06:58.000                             : en:Scene 6
00:07:31.000                             : en:Scene 7
00:08:06.000                             : en:Scene 8
00:09:34.000                             : en:Scene 9
00:10:55.000                             : en:Scene 10
00:12:15.000                             : en:Scene 11
00:13:36.000                             : en:Scene 12
00:15:55.000                             : en:Scene 13
00:17:57.000                             : en:Scene 14



Download
File Container: MKV
Video/Audio Codec: H264 (HIGH) EAC3
Video Resolution: 1920x1080

1 Response to "[RR/NF/CU] Bob Hearts Abishola S05E03 The Devils Hot Tub 1080p AMZN WEB-DL DDP5 1 H 264-NTb (1.3GB)"
02/27/24
22:54:30
ReadyPlayerOne

Thank You

Please Login to post a comment.
If you don't have any account, please Register.
  • Subscribe my Feeds
  • Facebook
Encoding Queue:  x264  x265

Latest Episodes

Popular Movies and TV Shows

  • Shogun
  • Sex Before the Internet
  • Ninja Kamui
  • Legend of the Lost Locket
  • Fantastic Four: Rise of the Silver Surfer
  • Tenet
  • Beacon 23
  • Parish
  • Saturday Night Live
  • Breaking Girl Code
  • Scrambled
  • Sin City: A Dame to Kill For
  • Immoral Women
  • S.W.A.T.
  • Willow
  • Blue Bloods
  • Riddle of Fire
  • Young Sheldon
  • Fallout
  • Grey's Anatomy
  • Star Trek: Discovery
  • Pacific Rim: Uprising
  • Whiplash
  • T2 Trainspotting
  • Sugar

Recent Comments

  • mentalityx:

    Rad bloke

  • DownloadHostInspector:

    so far these RMTeam uploads always have a working link. DownloadHostInspector approved!

  • DownloadHostInspector:

    ah yes, this upload has a host that works. clicknupload. DownloadHostInspector approved!

  • DownloadHostInspector: Why are all the download hosts trash? none of them let you download it
  • Qua4ratic:

    clicknupload link plz

  • ppoo:

    Please, can you add "Real Time with Bill Maher S22E11" ??

  • theahtisham:

    Kindly upload Ep. 3 and 4 as well.

  • Kudzu: Update on sound issue, File's codec info says stereo but is only a the left channel If I switch i...
  • Admin:

    kang
    Getting error while encoding, sorry

Archives