Sign Up   |   Sign In  
WalkerMacGyverThe Fall GuyBoys on Film 21: Beautiful SecretRace Across the WorldNo Country for Old MenFuriosa: A Mad Max SagaThe Feeling That the Time for Doing Something Has PassedAutoeroticUnder the BridgeWWE NXTPanchayatDark MatterMasterChef AustraliaThe Big Door PrizeNevada SmithCivil War12 StrongLootWWE RawCSI: VegasYour Mother's SonMahal ko ang mahal moThe First OmenThe Daily Show

Announcements

04/10

2024

No

Comments

Bobs Burgers S03E01 Ear-sy Rider 1080p AMZN WEB-DL DDP2 0 H265-SiGMA
[RR/NF/CU]
Size: 408MB mkv HEVC (MAIN) / EAC3  HD  1920x1080

Bob's Burgers
File Information
[img]http://lookpic.com/cdn/i2/t/0409202422294286-1.jpg[/img]
[img]http://lookpic.com/cdn/i2/t/0409202422294286-2.jpg[/img]
[img]http://lookpic.com/cdn/i2/t/0409202422294286-3.jpg[/img]

General
Unique ID                                : 190612743726389638381326330160472523945 (0x8F66ADD900A8439B70DB9E85960A04A9)
Complete name                            : Bobs Burgers S03E01 Ear-sy Rider 1080p AMZN WEB-DL DDP2 0 H265-SiGMA.mkv
Format                                   : Matroska
Format version                           : Version 4
File size                                : 408 MiB
Duration                                 : 21 min 44 s
Overall bit rate                         : 2 625 kb/s
Frame rate                               : 23.976 FPS
Encoded date                             : 2018-11-06 14:46:31 UTC
Writing application                      : mkvmerge v28.2.0 ('The Awakening') 64-bit
Writing library                          : libebml v1.3.6 + libmatroska v1.4.9

Video
ID                                       : 1
Format                                   : HEVC
Format/Info                              : High Efficiency Video Coding
Format profile                           : Main@L4@Main
Codec ID                                 : V_MPEGH/ISO/HEVC
Duration                                 : 21 min 44 s
Bit rate                                 : 2 399 kb/s
Width                                    : 1 920 pixels
Height                                   : 1 080 pixels
Display aspect ratio                     : 16:9
Frame rate mode                          : Constant
Frame rate                               : 23.976 (24000/1001) FPS
Standard                                 : NTSC
Color space                              : YUV
Chroma subsampling                       : 4:2:0
Bit depth                                : 8 bits
Bits/(Pixel*Frame)                       : 0.048
Stream size                              : 373 MiB (91%)
Writing library                          : x265 0.0:[Linux][GCC 4.8.2][64 bit] 8bit+10bit+12bit
Encoding settings                        : cpuid=1173503 / frame-threads=1 / wpp / no-pmode / no-pme / psnr / ssim / log-level=2 / csvfn=/apollo/env/YoshiEncodingWorkflowActivitiesLinuxEncoding/var/tmp/44976633/3eba7e62-0efa-41c8-a49f-0baf69c44ebb/e5eeb20c-37e4-4f2d-b750-c2e64874e42e_video_1080p_9000kbps.csv / csv-log-level=2 / input-csp=1 / input-res=1920x1080 / interlace=0 / total-frames=0 / level-idc=40 / high-tier=1 / uhd-bd=0 / ref=5 / no-allow-non-conformance / no-repeat-headers / annexb / no-aud / no-hrd / info / hash=0 / no-temporal-layers / no-open-gop / min-keyint=61 / keyint=120 / bframes=5 / b-adapt=2 / b-pyramid / bframe-bias=0 / rc-lookahead=120 / lookahead-slices=0 / scenecut=0 / no-intra-refresh / ctu=64 / min-cu-size=8 / rect / no-amp / max-tu-size=32 / tu-inter-depth=1 / tu-intra-depth=1 / limit-tu=0 / rdoq-level=2 / dynamic-rd=0.00 / no-ssim-rd / signhide / no-tskip / nr-intra=0 / nr-inter=200 / no-constrained-intra / strong-intra-smoothing / max-merge=3 / limit-refs=3 / limit-modes / me=3 / subme=3 / merange=57 / temporal-mvp / weightp / no-weightb / no-analyze-src-pics / deblock=0:0 / no-sao / no-sao-non-deblock / rd=4 / no-early-skip / rskip / no-fast-intra / no-tskip-fast / no-cu-lossless / no-b-intra / rdpenalty=0 / psy-rd=2.00 / psy-rdoq=1.00 / no-rd-refine / analysis-reuse-mode=0 / no-lossless / cbqpoffs=0 / crqpoffs=0 / rc=crf / crf=20.5 / qcomp=0.60 / qpstep=4 / stats-write=0 / stats-read=0 / vbv-maxrate=9000 / vbv-bufsize=12000 / vbv-init=0.9 / crf-max=0.0 / crf-min=0.0 / ipratio=1.40 / pbratio=1.30 / aq-mode=2 / aq-strength=1.00 / no-cutree / zone-count=0 / no-strict-cbr / qg-size=32 / no-rc-grain / qpmax=69 / qpmin=0 / no-const-vbv / sar=1 / overscan=0 / videoformat=2 / range=0 / colorprim=1 / transfer=1 / colormatrix=1 / chromaloc=0 / display-window=0 / max-cll=0,0 / min-luma=0 / max-luma=255 / log2-max-poc-lsb=8 / vui-timing-info / vui-hrd-info / slices=1 / opt-qp-pps / opt-ref-list-length-pps / no-multi-pass-opt-rps / scenecut-bias=0.05 / no-opt-cu-delta-qp / no-aq-motion / no-hdr / no-hdr-opt / no-dhdr10-opt / analysis-reuse-level=5 / scale-factor=0 / refine-intra=0 / refine-inter=0 / refine-mv=0 / no-limit-sao / ctu-info=0
Default                                  : Yes
Forced                                   : No
Color range                              : Limited
Color primaries                          : BT.709
Transfer characteristics                 : BT.709
Matrix coefficients                      : BT.709

Audio
ID                                       : 2
Format                                   : E-AC-3
Format/Info                              : Enhanced AC-3
Commercial name                          : Dolby Digital Plus
Codec ID                                 : A_EAC3
Duration                                 : 21 min 44 s
Bit rate mode                            : Constant
Bit rate                                 : 224 kb/s
Channel(s)                               : 2 channels
Channel layout                           : L R
Sampling rate                            : 48.0 kHz
Frame rate                               : 31.250 FPS (1536 SPF)
Compression mode                         : Lossy
Stream size                              : 34.8 MiB (9%)
Language                                 : English
Service kind                             : Complete Main
Default                                  : Yes
Forced                                   : No

Text
ID                                       : 3
Format                                   : UTF-8
Codec ID                                 : S_TEXT/UTF8
Codec ID/Info                            : UTF-8 Plain Text
Duration                                 : 21 min 26 s
Bit rate                                 : 112 b/s
Frame rate                               : 0.359 FPS
Count of elements                        : 462
Stream size                              : 17.6 KiB (0%)
Title                                    : English (SDH)
Language                                 : German
Default                                  : No
Forced                                   : No



Download
File Container: MKV
Video/Audio Codec: HEVC (MAIN) EAC3
Video Resolution: 1920x1080
Please Login to post a comment.
If you don't have any account, please Register.
  • Subscribe my Feeds
  • Facebook
Encoding Queue:  x264  x265

Latest Episodes

Popular Movies and TV Shows

  • Walker
  • MacGyver
  • The Fall Guy
  • Boys on Film 21: Beautiful Secret
  • Race Across the World
  • No Country for Old Men
  • Furiosa: A Mad Max Saga
  • The Feeling That the Time for Doing Something Has Passed
  • Autoerotic
  • Under the Bridge
  • WWE NXT
  • Panchayat
  • Dark Matter
  • MasterChef Australia
  • The Big Door Prize
  • Nevada Smith
  • Civil War
  • 12 Strong
  • Loot
  • WWE Raw
  • CSI: Vegas
  • Your Mother's Son
  • Mahal ko ang mahal mo
  • The First Omen
  • The Daily Show

Recent Comments

  • Bionicone: Yea this is not the Bluray version. This is another Cam. This thing should be taken down. Do not dow...
  • spiderspinner: Bud:The same thing started happening to me last night and I've used four different browsers yet they...
  • timt:

    Junk, CAM

  • upx:

    WARNING:This is NOT a BluRay rip. It's a CAMrip.

  • Bud: Is clicknupload borked for anyone else now, or is it just me? In recent months it's only worked in...
  • mentalityx:

    Rad bloke!

  • waanaabe: I hope someone follows through with the rest! also, did not check every post but hoping future ones ...
  • Demonz:

    Holy popups ClickNupload

  • rambaldi70:

    this release sort cut! 1h33m12 !
    imdb - 1h 54m

  • rambaldi70: This release the first bad source 1h33m12 - stop the play this release sort cut! 1h33m12 ! imdb - 1h...
  • rambaldi70:

    this release sort cut! 1h33m12 !
    imdb - 1h 54m

  • dilliboy: Will we ever see these RMTeam releases ever again? I hope they're not lost to the digital graveyard ...
  • kang:

    NitroFlare's link is missing...

  • kang:

    NitroFlare's link is missing...

  • tchamast:

    @Wrapt

    I've seen that too, don't know why.

  • Rafi85: Hi thx for the 14th season. Is it possible to reupload some episodes plz they were removed. These ar...
  • KubrickFan:

    Any possibility of a fresh link for this?

  • GubeShitemon: This is a different movie to the artwork version. Not the Dylan McDermott film but the Ben Affleck f...
  • drorsabi1:

    @admin
    Please add "My Adventures With Superman Season 2 "

  • Wrapt: Hahahaha yeah right make a liar out of me but I was referring to comments made about a movie or an e...

Archives