Sign Up   |   Sign In  
The RookiePaulineWWE NXTBoy Kills WorldSteelRachel Feinstein: Big GuyDark MatterThe Good DoctorWill TrentThe Fall GuyMoonedLove, AgainFBI: Most WantedThe Cleaning LadyFBIThe Manchurian CandidateVisionsGekijouban soushuuhen Ôbârôdo: Shikkoku no eiyuuFBI: InternationalWWE RawUnder the BridgeExpend4blesSeize Them!8 Found DeadThe Simpsons

Announcements

04/10

2024

No

Comments

Bobs Burgers S05E01 Work Hard or Die Trying Girl 1080p AMZN WEB-DL DDP2 0 H265-SiGMA
[RR/NF/CU]
Size: 241MB mkv HEVC (MAIN) / EAC3  HD  1920x1080

Bob's Burgers
File Information
[img]http://lookpic.com/cdn/i2/t/0410202408390451-1.jpg[/img]
[img]http://lookpic.com/cdn/i2/t/0410202408390451-2.jpg[/img]
[img]http://lookpic.com/cdn/i2/t/0410202408390451-3.jpg[/img]

General
Unique ID                                : 39187101642643906452475909839149996740 (0x1D7B294798CBF18C165143B60D761AC4)
Complete name                            : Bobs Burgers S05E01 Work Hard or Die Trying Girl 1080p AMZN WEB-DL DDP2 0 H265-SiGMA.mkv
Format                                   : Matroska
Format version                           : Version 4
File size                                : 241 MiB
Duration                                 : 21 min 47 s
Overall bit rate                         : 1 548 kb/s
Frame rate                               : 23.976 FPS
Encoded date                             : 2018-11-06 14:34:39 UTC
Writing application                      : mkvmerge v28.2.0 ('The Awakening') 64-bit
Writing library                          : libebml v1.3.6 + libmatroska v1.4.9

Video
ID                                       : 1
Format                                   : HEVC
Format/Info                              : High Efficiency Video Coding
Format profile                           : Main@L4@Main
Codec ID                                 : V_MPEGH/ISO/HEVC
Duration                                 : 21 min 46 s
Bit rate                                 : 1 322 kb/s
Width                                    : 1 920 pixels
Height                                   : 1 080 pixels
Display aspect ratio                     : 16:9
Frame rate mode                          : Constant
Frame rate                               : 23.976 (24000/1001) FPS
Standard                                 : NTSC
Color space                              : YUV
Chroma subsampling                       : 4:2:0
Bit depth                                : 8 bits
Bits/(Pixel*Frame)                       : 0.027
Stream size                              : 206 MiB (85%)
Writing library                          : x265 0.0:[Linux][GCC 4.8.2][64 bit] 8bit+10bit+12bit
Encoding settings                        : cpuid=1173503 / frame-threads=1 / wpp / no-pmode / no-pme / psnr / ssim / log-level=2 / csvfn=/apollo/env/YoshiEncodingWorkflowActivitiesLinuxEncoding/var/tmp/360608572/119f0736-696d-425c-af58-0bfc5e678a45/71ac4f26-d535-43d5-b5e8-9ac5437219eb_video_1080p_9000kbps.csv / csv-log-level=2 / input-csp=1 / input-res=1920x1080 / interlace=0 / total-frames=0 / level-idc=40 / high-tier=1 / uhd-bd=0 / ref=5 / no-allow-non-conformance / no-repeat-headers / annexb / no-aud / no-hrd / info / hash=0 / no-temporal-layers / no-open-gop / min-keyint=61 / keyint=120 / bframes=5 / b-adapt=2 / b-pyramid / bframe-bias=0 / rc-lookahead=120 / lookahead-slices=0 / scenecut=0 / no-intra-refresh / ctu=64 / min-cu-size=8 / rect / no-amp / max-tu-size=32 / tu-inter-depth=1 / tu-intra-depth=1 / limit-tu=0 / rdoq-level=2 / dynamic-rd=0.00 / no-ssim-rd / signhide / no-tskip / nr-intra=0 / nr-inter=200 / no-constrained-intra / strong-intra-smoothing / max-merge=3 / limit-refs=3 / limit-modes / me=3 / subme=3 / merange=57 / temporal-mvp / weightp / no-weightb / no-analyze-src-pics / deblock=0:0 / no-sao / no-sao-non-deblock / rd=4 / no-early-skip / rskip / no-fast-intra / no-tskip-fast / no-cu-lossless / no-b-intra / rdpenalty=0 / psy-rd=2.00 / psy-rdoq=1.00 / no-rd-refine / analysis-reuse-mode=0 / no-lossless / cbqpoffs=0 / crqpoffs=0 / rc=crf / crf=20.5 / qcomp=0.60 / qpstep=4 / stats-write=0 / stats-read=0 / vbv-maxrate=9000 / vbv-bufsize=12000 / vbv-init=0.9 / crf-max=0.0 / crf-min=0.0 / ipratio=1.40 / pbratio=1.30 / aq-mode=2 / aq-strength=1.00 / no-cutree / zone-count=0 / no-strict-cbr / qg-size=32 / no-rc-grain / qpmax=69 / qpmin=0 / no-const-vbv / sar=1 / overscan=0 / videoformat=2 / range=0 / colorprim=1 / transfer=1 / colormatrix=1 / chromaloc=0 / display-window=0 / max-cll=0,0 / min-luma=0 / max-luma=255 / log2-max-poc-lsb=8 / vui-timing-info / vui-hrd-info / slices=1 / opt-qp-pps / opt-ref-list-length-pps / no-multi-pass-opt-rps / scenecut-bias=0.05 / no-opt-cu-delta-qp / no-aq-motion / no-hdr / no-hdr-opt / no-dhdr10-opt / analysis-reuse-level=5 / scale-factor=0 / refine-intra=0 / refine-inter=0 / refine-mv=0 / no-limit-sao / ctu-info=0
Default                                  : Yes
Forced                                   : No
Color range                              : Limited
Color primaries                          : BT.709
Transfer characteristics                 : BT.709
Matrix coefficients                      : BT.709

Audio
ID                                       : 2
Format                                   : E-AC-3
Format/Info                              : Enhanced AC-3
Commercial name                          : Dolby Digital Plus
Codec ID                                 : A_EAC3
Duration                                 : 21 min 47 s
Bit rate mode                            : Constant
Bit rate                                 : 224 kb/s
Channel(s)                               : 2 channels
Channel layout                           : L R
Sampling rate                            : 48.0 kHz
Frame rate                               : 31.250 FPS (1536 SPF)
Compression mode                         : Lossy
Stream size                              : 34.9 MiB (14%)
Language                                 : English
Service kind                             : Complete Main
Default                                  : Yes
Forced                                   : No

Text
ID                                       : 3
Format                                   : UTF-8
Codec ID                                 : S_TEXT/UTF8
Codec ID/Info                            : UTF-8 Plain Text
Duration                                 : 21 min 34 s
Bit rate                                 : 125 b/s
Frame rate                               : 0.424 FPS
Count of elements                        : 549
Stream size                              : 19.8 KiB (0%)
Title                                    : English (SDH)
Language                                 : German
Default                                  : No
Forced                                   : No



Download
File Container: MKV
Video/Audio Codec: HEVC (MAIN) EAC3
Video Resolution: 1920x1080
Please Login to post a comment.
If you don't have any account, please Register.
  • Subscribe my Feeds
  • Facebook
Encoding Queue:  x264  x265

Latest Episodes

Popular Movies and TV Shows

  • The Rookie
  • Pauline
  • WWE NXT
  • Boy Kills World
  • Steel
  • Rachel Feinstein: Big Guy
  • Dark Matter
  • The Good Doctor
  • Will Trent
  • The Fall Guy
  • Mooned
  • Love, Again
  • FBI: Most Wanted
  • The Cleaning Lady
  • FBI
  • The Manchurian Candidate
  • Visions
  • Gekijouban soushuuhen Ôbârôdo: Shikkoku no eiyuu
  • FBI: International
  • WWE Raw
  • Under the Bridge
  • Expend4bles
  • Seize Them!
  • 8 Found Dead
  • The Simpsons

Recent Comments

  • Geependo:

    All links are dead

  • OldMovies:

    Has Czech subtitles but not English. Need forced English for the foreign language parts.

  • PROFessorMorrynarty: Would it be possible to upload 'Lego masters Australia' Series 6 Episode 6 Please? It's the only one...
  • mentalityx:

    Thx mate.

  • Bud: Is the search engine down for everyone, or just me? It just says 'You're forbidden!' whenever I lo...
  • 23d1:

    not episode 4 it is episode 3

  • 23d1:

    not episode 4 it is episode 3

  • 23d1:

    not episode 4 it is episode 3

  • 23d1:

    not episode 4 it is episode 3

  • aaroz88:

    Trimas!!

  • mptoo: I don't often ask this, infact this would be the first time, but I don't suppose there is any chance...

Archives