Sign Up   |   Sign In  
Mysterious DisappearancesWWE NXTFBI: Most WantedRachel Feinstein: Big GuyBoy Kills WorldSin Takes a HolidayThe RookieDark MatterThe Good DoctorThe Fall GuyMoonedGekijouban soushuuhen Ôbârôdo: Fushisha no ouWill TrentThe Cleaning LadyFBIThe Manchurian CandidateVisionsGekijouban soushuuhen Ôbârôdo: Shikkoku no eiyuuFBI: InternationalWWE RawThe SimpsonsExpend4blesSeize Them!8 Found DeadYoung Sheldon

Announcements

04/10

2024

No

Comments

Bobs Burgers S08E01 Brunchsquatch 1080p AMZN WEB-DL DD 5 1 H 264-SiGMA
[RR/NF/CU]
Size: 408MB mkv H264 (HIGH) / EAC3  HD  1920x1080

Bob's Burgers
File Information
[img]http://lookpic.com/cdn/i2/t/0410202414061152-1.jpg[/img]
[img]http://lookpic.com/cdn/i2/t/0410202414061152-2.jpg[/img]
[img]http://lookpic.com/cdn/i2/t/0410202414061152-3.jpg[/img]

General
Unique ID                                : 31979760842145293786947960633127138892 (0x180F13F163111281898E40C35DC0F64C)
Complete name                            : Bobs Burgers S08E01 Brunchsquatch 1080p AMZN WEB-DL DD 5 1 H 264-SiGMA.mkv
Format                                   : Matroska
Format version                           : Version 4
File size                                : 408 MiB
Duration                                 : 22 min 33 s
Overall bit rate mode                    : Variable
Overall bit rate                         : 2 532 kb/s
Frame rate                               : 23.976 FPS
Encoded date                             : 2017-10-02 15:53:23 UTC
Writing application                      : mkvmerge v15.0.0 ('Duel with the Devil') 64-bit
Writing library                          : libebml v1.3.5 + libmatroska v1.4.5

Video
ID                                       : 1
Format                                   : AVC
Format/Info                              : Advanced Video Codec
Format profile                           : High@L4
Format settings                          : CABAC / 4 Ref Frames
Format settings, CABAC                   : Yes
Format settings, Reference frames        : 4 frames
Codec ID                                 : V_MPEG4/ISO/AVC
Duration                                 : 22 min 33 s
Bit rate mode                            : Variable
Bit rate                                 : 1 890 kb/s
Maximum bit rate                         : 15.0 Mb/s
Width                                    : 1 920 pixels
Height                                   : 1 080 pixels
Display aspect ratio                     : 16:9
Frame rate mode                          : Constant
Frame rate                               : 23.976 (24000/1001) FPS
Color space                              : YUV
Chroma subsampling                       : 4:2:0
Bit depth                                : 8 bits
Scan type                                : Progressive
Bits/(Pixel*Frame)                       : 0.038
Stream size                              : 305 MiB (75%)
Default                                  : Yes
Forced                                   : No
Color range                              : Limited
Color primaries                          : BT.709
Transfer characteristics                 : BT.709
Matrix coefficients                      : BT.709

Audio
ID                                       : 2
Format                                   : E-AC-3
Format/Info                              : Enhanced AC-3
Commercial name                          : Dolby Digital Plus
Codec ID                                 : A_EAC3
Duration                                 : 22 min 33 s
Bit rate mode                            : Constant
Bit rate                                 : 640 kb/s
Channel(s)                               : 6 channels
Channel layout                           : L R C LFE Ls Rs
Sampling rate                            : 48.0 kHz
Frame rate                               : 31.250 FPS (1536 SPF)
Compression mode                         : Lossy
Stream size                              : 103 MiB (25%)
Language                                 : English
Service kind                             : Complete Main
Default                                  : Yes
Forced                                   : No

Text
ID                                       : 3
Format                                   : UTF-8
Codec ID                                 : S_TEXT/UTF8
Codec ID/Info                            : UTF-8 Plain Text
Duration                                 : 22 min 29 s
Bit rate                                 : 132 b/s
Frame rate                               : 0.454 FPS
Count of elements                        : 613
Stream size                              : 21.8 KiB (0%)
Language                                 : English
Default                                  : No
Forced                                   : No



Download
File Container: MKV
Video/Audio Codec: H264 (HIGH) EAC3
Video Resolution: 1920x1080
Please Login to post a comment.
If you don't have any account, please Register.
  • Subscribe my Feeds
  • Facebook
Encoding Queue:  x264  x265

Latest Episodes

Popular Movies and TV Shows

  • Mysterious Disappearances
  • WWE NXT
  • FBI: Most Wanted
  • Rachel Feinstein: Big Guy
  • Boy Kills World
  • Sin Takes a Holiday
  • The Rookie
  • Dark Matter
  • The Good Doctor
  • The Fall Guy
  • Mooned
  • Gekijouban soushuuhen Ôbârôdo: Fushisha no ou
  • Will Trent
  • The Cleaning Lady
  • FBI
  • The Manchurian Candidate
  • Visions
  • Gekijouban soushuuhen Ôbârôdo: Shikkoku no eiyuu
  • FBI: International
  • WWE Raw
  • The Simpsons
  • Expend4bles
  • Seize Them!
  • 8 Found Dead
  • Young Sheldon

Recent Comments

  • Geependo:

    All links are dead

  • OldMovies:

    Has Czech subtitles but not English. Need forced English for the foreign language parts.

  • PROFessorMorrynarty: Would it be possible to upload 'Lego masters Australia' Series 6 Episode 6 Please? It's the only one...
  • mentalityx:

    Thx mate.

  • Bud: Is the search engine down for everyone, or just me? It just says 'You're forbidden!' whenever I lo...
  • 23d1:

    not episode 4 it is episode 3

  • 23d1:

    not episode 4 it is episode 3

  • 23d1:

    not episode 4 it is episode 3

  • 23d1:

    not episode 4 it is episode 3

  • aaroz88:

    Trimas!!

  • mptoo: I don't often ask this, infact this would be the first time, but I don't suppose there is any chance...

Archives