Sign Up   |   Sign In  
WalkerMacGyverReginald the VampireBoys on Film 21: Beautiful SecretThe Fall GuyNo Country for Old MenFuriosa: A Mad Max SagaAutoeroticWWE NXTUnder the BridgeThe Feeling That the Time for Doing Something Has PassedLaw & Order: Organized CrimeDark MatterMasterChef AustraliaThe Big Door PrizeNevada SmithCivil War12 StrongLootWWE RawCSI: VegasYour Mother's SonMahal ko ang mahal moThe First OmenThe Daily Show

Announcements

04/10

2024

No

Comments

Bobs Burgers S08E0607 The Bleakening Part One and Two 1080p AMZN WEB-DL DD 5 1 H 264-SiGMA
[RR/NF/CU]
Size: 924MB mkv H264 (HIGH) / EAC3  HD  1920x1080

Bob's Burgers
File Information
[img]http://lookpic.com/cdn/i2/t/0410202414063463-1.jpg[/img]
[img]http://lookpic.com/cdn/i2/t/0410202414063463-2.jpg[/img]
[img]http://lookpic.com/cdn/i2/t/0410202414063463-3.jpg[/img]

General
Unique ID                                : 276893923867143341699986745886903002260 (0xD04FD476E99B09FAAF2796FCF89A6494)
Complete name                            : Bobs Burgers S08E0607 The Bleakening Part One and Two 1080p AMZN WEB-DL DD 5 1 H 264-SiGMA.mkv
Format                                   : Matroska
Format version                           : Version 4
File size                                : 925 MiB
Duration                                 : 44 min 40 s
Overall bit rate mode                    : Variable
Overall bit rate                         : 2 895 kb/s
Frame rate                               : 23.976 FPS
Encoded date                             : 2018-05-22 07:23:23 UTC
Writing application                      : mkvmerge v8.8.0 ('Wind at my back') 64bit
Writing library                          : libebml v1.3.3 + libmatroska v1.4.4

Video
ID                                       : 1
Format                                   : AVC
Format/Info                              : Advanced Video Codec
Format profile                           : High@L4
Format settings                          : CABAC / 4 Ref Frames
Format settings, CABAC                   : Yes
Format settings, Reference frames        : 4 frames
Codec ID                                 : V_MPEG4/ISO/AVC
Duration                                 : 44 min 40 s
Bit rate mode                            : Variable
Bit rate                                 : 2 253 kb/s
Maximum bit rate                         : 15.0 Mb/s
Width                                    : 1 920 pixels
Height                                   : 1 080 pixels
Display aspect ratio                     : 16:9
Frame rate mode                          : Constant
Frame rate                               : 23.976 (24000/1001) FPS
Color space                              : YUV
Chroma subsampling                       : 4:2:0
Bit depth                                : 8 bits
Scan type                                : Progressive
Bits/(Pixel*Frame)                       : 0.045
Stream size                              : 720 MiB (78%)
Default                                  : Yes
Forced                                   : No
Color range                              : Limited
Color primaries                          : BT.709
Transfer characteristics                 : BT.709
Matrix coefficients                      : BT.709

Audio
ID                                       : 2
Format                                   : E-AC-3
Format/Info                              : Enhanced AC-3
Commercial name                          : Dolby Digital Plus
Codec ID                                 : A_EAC3
Duration                                 : 44 min 40 s
Bit rate mode                            : Constant
Bit rate                                 : 640 kb/s
Channel(s)                               : 6 channels
Channel layout                           : L R C LFE Ls Rs
Sampling rate                            : 48.0 kHz
Frame rate                               : 31.250 FPS (1536 SPF)
Compression mode                         : Lossy
Stream size                              : 204 MiB (22%)
Language                                 : English
Service kind                             : Complete Main
Default                                  : Yes
Forced                                   : No

Text
ID                                       : 3
Format                                   : UTF-8
Codec ID                                 : S_TEXT/UTF8
Codec ID/Info                            : UTF-8 Plain Text
Duration                                 : 44 min 36 s
Bit rate                                 : 130 b/s
Frame rate                               : 0.471 FPS
Count of elements                        : 1260
Stream size                              : 42.7 KiB (0%)
Language                                 : English
Default                                  : No
Forced                                   : No



Download
File Container: MKV
Video/Audio Codec: H264 (HIGH) EAC3
Video Resolution: 1920x1080
Please Login to post a comment.
If you don't have any account, please Register.
  • Subscribe my Feeds
  • Facebook
Encoding Queue:  x264  x265

Latest Episodes

Popular Movies and TV Shows

  • Walker
  • MacGyver
  • Reginald the Vampire
  • Boys on Film 21: Beautiful Secret
  • The Fall Guy
  • No Country for Old Men
  • Furiosa: A Mad Max Saga
  • Autoerotic
  • WWE NXT
  • Under the Bridge
  • The Feeling That the Time for Doing Something Has Passed
  • Law & Order: Organized Crime
  • Dark Matter
  • MasterChef Australia
  • The Big Door Prize
  • Nevada Smith
  • Civil War
  • 12 Strong
  • Loot
  • WWE Raw
  • CSI: Vegas
  • Your Mother's Son
  • Mahal ko ang mahal mo
  • The First Omen
  • The Daily Show

Recent Comments

  • dma: @admin It appears that ClickNupload is no longer usable for free users. Don't know about paying use...
  • Bionicone: Yea this is not the Bluray version. This is another Cam. This thing should be taken down. Do not dow...
  • spiderspinner: Bud:The same thing started happening to me last night and I've used four different browsers yet they...
  • timt:

    Junk, CAM

  • upx:

    WARNING:This is NOT a BluRay rip. It's a CAMrip.

  • Bud: Is clicknupload borked for anyone else now, or is it just me? In recent months it's only worked in...
  • mentalityx:

    Rad bloke!

  • waanaabe: I hope someone follows through with the rest! also, did not check every post but hoping future ones ...
  • Demonz:

    Holy popups ClickNupload

  • rambaldi70:

    this release sort cut! 1h33m12 !
    imdb - 1h 54m

  • rambaldi70: This release the first bad source 1h33m12 - stop the play this release sort cut! 1h33m12 ! imdb - 1h...
  • rambaldi70:

    this release sort cut! 1h33m12 !
    imdb - 1h 54m

  • dilliboy: Will we ever see these RMTeam releases ever again? I hope they're not lost to the digital graveyard ...
  • kang:

    NitroFlare's link is missing...

  • kang:

    NitroFlare's link is missing...

  • tchamast:

    @Wrapt

    I've seen that too, don't know why.

  • Rafi85: Hi thx for the 14th season. Is it possible to reupload some episodes plz they were removed. These ar...
  • KubrickFan:

    Any possibility of a fresh link for this?

  • GubeShitemon: This is a different movie to the artwork version. Not the Dylan McDermott film but the Ben Affleck f...
  • drorsabi1:

    @admin
    Please add "My Adventures With Superman Season 2 "

Archives