Sign Up   |   Sign In  
My Adventures with SupermanTop Chef: The Dish with KishChristmas Is CanceledSatan's ChildrenThe Body StealersCosta!!Mayor of KingstownInterview with the VampireHotel CocaineDaaaaaali!OctopussyFramed by My HusbandBilly the KidLadies in BlackThe Loud HouseKung Fu HustleLicence to KillLook to the LightWWE NXTWalkerThe Bold and the BeautifulVice News Presents: Mass Shooting AmericaThere's Something About MaryMy Sexual Abuse: The SitcomThe Daily Show

Announcements

05/23

2024

No

Comments

Bobs Burgers S14E01 Fight at the Not Okay Chore-ral 1080p DSNP WEB-DL DDP5 1 H 264-NTb
[RR/NF/CU]
Size: 500MB mkv H264 (HIGH) / EAC3  HD  1920x1080

Bob's Burgers
File Information
[img]http://lookpic.com/cdn/i2/t/0523202420500016-1.jpg[/img]
[img]http://lookpic.com/cdn/i2/t/0523202420500016-2.jpg[/img]
[img]http://lookpic.com/cdn/i2/t/0523202420500016-3.jpg[/img]

General
Unique ID                                : 292198547423713878437389862250117259397 (0xDBD364A9FFBC8D74A7D5C8F06906E085)
Complete name                            : Bobs Burgers S14E01 Fight at the Not Okay Chore-ral 1080p DSNP WEB-DL DDP5 1 H 264-NTb.mkv
Format                                   : Matroska
Format version                           : Version 4
File size                                : 501 MiB
Duration                                 : 21 min 37 s
Overall bit rate mode                    : Variable
Overall bit rate                         : 3 236 kb/s
Frame rate                               : 23.976 FPS
Writing application                      : mkvmerge v79.0 ('Funeral Pyres') 64-bit
Writing library                          : libebml v1.4.4 + libmatroska v1.7.1

Video
ID                                       : 1
Format                                   : AVC
Format/Info                              : Advanced Video Codec
Format profile                           : High@L4
Format settings                          : CABAC / 4 Ref Frames
Format settings, CABAC                   : Yes
Format settings, Reference frames        : 4 frames
Codec ID                                 : V_MPEG4/ISO/AVC
Duration                                 : 21 min 37 s
Bit rate mode                            : Variable
Bit rate                                 : 2 977 kb/s
Maximum bit rate                         : 12.7 Mb/s
Width                                    : 1 920 pixels
Height                                   : 1 080 pixels
Display aspect ratio                     : 16:9
Frame rate mode                          : Constant
Frame rate                               : 23.976 (24000/1001) FPS
Color space                              : YUV
Chroma subsampling                       : 4:2:0
Bit depth                                : 8 bits
Scan type                                : Progressive
Bits/(Pixel*Frame)                       : 0.060
Time code of first frame                 : 00:00:00:0000000000
Stream size                              : 461 MiB (92%)
Default                                  : Yes
Forced                                   : No
Color range                              : Limited
Color primaries                          : BT.709
Transfer characteristics                 : BT.709
Matrix coefficients                      : BT.709

Audio
ID                                       : 2
Format                                   : E-AC-3
Format/Info                              : Enhanced AC-3
Commercial name                          : Dolby Digital Plus
Codec ID                                 : A_EAC3
Duration                                 : 21 min 37 s
Bit rate mode                            : Constant
Bit rate                                 : 256 kb/s
Channel(s)                               : 6 channels
Channel layout                           : L R C LFE Ls Rs
Sampling rate                            : 48.0 kHz
Frame rate                               : 31.250 FPS (1536 SPF)
Compression mode                         : Lossy
Stream size                              : 39.6 MiB (8%)
Language                                 : English
Service kind                             : Complete Main
Default                                  : Yes
Forced                                   : No

Text #1
ID                                       : 3
Format                                   : UTF-8
Codec ID                                 : S_TEXT/UTF8
Codec ID/Info                            : UTF-8 Plain Text
Duration                                 : 21 min 29 s
Bit rate                                 : 137 b/s
Frame rate                               : 0.493 FPS
Count of elements                        : 636
Stream size                              : 21.6 KiB (0%)
Language                                 : English
Default                                  : No
Forced                                   : No

Text #2
ID                                       : 4
Format                                   : UTF-8
Codec ID                                 : S_TEXT/UTF8
Codec ID/Info                            : UTF-8 Plain Text
Duration                                 : 21 min 29 s
Bit rate                                 : 142 b/s
Frame rate                               : 0.497 FPS
Count of elements                        : 641
Stream size                              : 22.4 KiB (0%)
Title                                    : SDH
Language                                 : English
Default                                  : No
Forced                                   : No

Text #3
ID                                       : 5
Format                                   : UTF-8
Codec ID                                 : S_TEXT/UTF8
Codec ID/Info                            : UTF-8 Plain Text
Duration                                 : 21 min 29 s
Bit rate                                 : 119 b/s
Frame rate                               : 0.346 FPS
Count of elements                        : 446
Stream size                              : 18.9 KiB (0%)
Language                                 : Danish
Default                                  : No
Forced                                   : No

Text #4
ID                                       : 6
Format                                   : UTF-8
Codec ID                                 : S_TEXT/UTF8
Codec ID/Info                            : UTF-8 Plain Text
Duration                                 : 21 min 29 s
Bit rate                                 : 103 b/s
Frame rate                               : 0.346 FPS
Count of elements                        : 446
Stream size                              : 16.3 KiB (0%)
Language                                 : Finnish
Default                                  : No
Forced                                   : No

Text #5
ID                                       : 7
Format                                   : UTF-8
Codec ID                                 : S_TEXT/UTF8
Codec ID/Info                            : UTF-8 Plain Text
Duration                                 : 21 min 29 s
Bit rate                                 : 119 b/s
Frame rate                               : 0.346 FPS
Count of elements                        : 446
Stream size                              : 18.7 KiB (0%)
Language                                 : French (FR)
Default                                  : No
Forced                                   : No

Text #6
ID                                       : 8
Format                                   : UTF-8
Codec ID                                 : S_TEXT/UTF8
Codec ID/Info                            : UTF-8 Plain Text
Duration                                 : 21 min 29 s
Bit rate                                 : 117 b/s
Frame rate                               : 0.346 FPS
Count of elements                        : 446
Stream size                              : 18.5 KiB (0%)
Language                                 : Norwegian
Default                                  : No
Forced                                   : No

Text #7
ID                                       : 9
Format                                   : UTF-8
Codec ID                                 : S_TEXT/UTF8
Codec ID/Info                            : UTF-8 Plain Text
Duration                                 : 21 min 29 s
Bit rate                                 : 128 b/s
Frame rate                               : 0.345 FPS
Count of elements                        : 445
Stream size                              : 20.2 KiB (0%)
Language                                 : Swedish
Default                                  : No
Forced                                   : No



Download
File Container: MKV
Video/Audio Codec: H264 (HIGH) EAC3
Video Resolution: 1920x1080
Please Login to post a comment.
If you don't have any account, please Register.
  • Subscribe my Feeds
  • Facebook
Encoding Queue:  x264  x265

Latest Episodes

Popular Movies and TV Shows

  • My Adventures with Superman
  • Top Chef: The Dish with Kish
  • Christmas Is Canceled
  • Satan's Children
  • The Body Stealers
  • Costa!!
  • Mayor of Kingstown
  • Interview with the Vampire
  • Hotel Cocaine
  • Daaaaaali!
  • Octopussy
  • Framed by My Husband
  • Billy the Kid
  • Ladies in Black
  • The Loud House
  • Kung Fu Hustle
  • Licence to Kill
  • Look to the Light
  • WWE NXT
  • Walker
  • The Bold and the Beautiful
  • Vice News Presents: Mass Shooting America
  • There's Something About Mary
  • My Sexual Abuse: The Sitcom
  • The Daily Show

Recent Comments

Archives