Sign Up   |   Sign In  

Announcements

Want to support us?
Buy a RapidRAR account from our resellers:
Buy or renew a NitroFlare account via THIS LINK
We'll stop uploading files to Uploaded.net in December 2017.

02/21

2017

1

Comments

Cavemen 2013 1080p BluRay x264 DD5 1-FGT
[RR/NF]
Size: 8.2GB mkv H264 (HIGH) / AC3  HD  1920x802

Cavemen
Click on the image to see full size
[RR/NF] Cavemen 2013 1080p BluRay x264 DD5 1-FGT (8.2GB) - Snapshot 1
File Information
[URL=http://imagecurl.com/viewer.php?file=63175041334282298545.png][IMG]http://imagecurl.com/images/63175041334282298545_thumb.png[/IMG][/URL]
[URL=http://imagecurl.com/viewer.php?file=61350410182384618990.png][IMG]http://imagecurl.com/images/61350410182384618990_thumb.png[/IMG][/URL]
[URL=http://imagecurl.com/viewer.php?file=06119997604908548028.png][IMG]http://imagecurl.com/images/06119997604908548028_thumb.png[/IMG][/URL]
[URL=http://imagecurl.com/viewer.php?file=64680107926907736746.png][IMG]http://imagecurl.com/images/64680107926907736746_thumb.png[/IMG][/URL]
[URL=http://imagecurl.com/viewer.php?file=35645649372934556907.png][IMG]http://imagecurl.com/images/35645649372934556907_thumb.png[/IMG][/URL]
[URL=http://imagecurl.com/viewer.php?file=35696578859527685397.png][IMG]http://imagecurl.com/images/35696578859527685397_thumb.png[/IMG][/URL]



[mediainfo]
Video
ID                                       : 1
Format                                   : AVC
Format/Info                              : Advanced Video Codec
Format profile                           : [email protected]
Format settings, CABAC                   : Yes
Format settings, ReFrames                : 5 frames
Codec ID                                 : V_MPEG4/ISO/AVC
Duration                                 : 1h 26mn
Bit rate                                 : 12.6 Mbps
Width                                    : 1 920 pixels
Height                                   : 802 pixels
Display aspect ratio                     : 2.40:1
Frame rate mode                          : Constant
Frame rate                               : 23.976 (24000/1001) fps
Color space                              : YUV
Chroma subsampling                       : 4:2:0
Bit depth                                : 8 bits
Scan type                                : Progressive
Bits/(Pixel*Frame)                       : 0.342
Stream size                              : 7.67 GiB (93%)
Writing library                          : x264 core 148 r2692kMod 64f4e24
 Encoding settings                        : cabac=1 / ref=5 / deblock=1:-3:-3 / analyse=0x3:0x133 / me=umh / subme=10 / psy=1 / fade_compensate=0.00 / psy_rd=1.05:0.00 / mixed_ref=1 / me_range=32 / chroma_me=1 / trellis=2 / 8x8dct=1 / cqm=0 / deadz / fast pskip=0 / chroma_qp_offset=-2 / threads=6 / lookahead_threads=1 / sliced_threads=0 / nr=0 / decimate=0 / interlaced=0 / bluray_compat=0 / c / fgo=0 / bframes=8 / b_pyramid=2 / b_adapt=2 / b_bias=0 / direct=3 / weightb=1 / open_gop=0 / weightp=2 / keyint=250 / keyint_min=23 / scenecut=40 / intra_refresh=0 / rc_lookahead=60 / rc=crf / mbtree=0 / crf=18.0000 / qcomp=0.60 / qpmin=0 / qpmax=69 / qpstep=4 / vbv_maxrate=62500 / vbv_bufsize=78125 / crf_max=0.0 / nal_hrd=none / filler=0 / ip_ratio=1.30 / pb_ratio=1.20 / aq=3:0.80
Language                                 : English
Default                                  : Yes
Forced                                   : No

Audio
ID                                       : 2
Format                                   : AC-3
Format/Info                              : Audio Coding 3
Mode extension                           : CM (complete main)
Format settings, Endianness              : Big
Codec ID                                 : A_AC3
Duration                                 : 1h 26mn
Bit rate mode                            : Constant
Bit rate                                 : 640 Kbps
Channel(s)                               : 6 channels
Channel positions                        : Front: L C R, Side: L R, LFE
Sampling rate                            : 48.0 KHz
Frame rate                               : 31.250 fps (1536 spf)
Compression mode                         : Lossy
Stream size                              : 397 MiB (5%)
Language                                 : English
Default                                  : Yes
Forced                                   : No

Text
ID                                       : 3
Format                                   : UTF-8
Codec ID                                 : S_TEXT/UTF8
Codec ID/Info                            : UTF-8 Plain Text
Language                                 : English
Default                                  : No
Forced                                   : No

Menu
00:00:00.000                             : en:00:00:00.000
00:08:29.342                             : en:00:08:29.342
00:16:41.042                             : en:00:16:41.042
00:25:20.811                             : en:00:25:20.811
00:35:27.959                             : en:00:35:27.959
00:42:59.076                             : en:00:42:59.076
00:48:36.747                             : en:00:48:36.747
01:01:23.972                             : en:01:01:23.972
01:11:58.105                             : en:01:11:58.105
01:21:45.901                             : en:01:21:45.901



[/mediainfo]
Download
File Container: MKV
Video/Audio Codec: H264 (HIGH) AC3
Video Resolution: 1920x802
 
 

Show us some love

1 Response to "[RR/NF] Cavemen 2013 1080p BluRay x264 DD5 1-FGT (8.2GB)"
09/24/17
02:03:07
mda

1080p HEVC Please

Leave a Comment

  • (never displayed)
  •  
        Members don't see captchas. Sign Up / Sign In
  • Notify me via email when someone responds.
  • Subscribe my Feeds
  • Facebook

Latest Episodes

Popular Movies and TV Shows

  • The Gifted
  • Supergirl
  • The Big Bang Theory
  • The Good Doctor
  • The Brave
  • Me, Myself and I
  • Close Encounters of the Third Kind
  • Rawhead Rex
  • Felony
  • The Walking Dead
  • Star Trek: Discovery
  • The Deuce
  • Cars 3
  • Wheelman
  • Anne of the Indies
  • Lucifer
  • Ray Donovan
  • The Last Man on Earth
  • Hampstead
  • Year of the Comet
  • Truth in Numbers? Everything, According to Wikipedia
  • Gunpowder
  • Outlander
  • Dirk Gently's Holistic Detective Agency
  • Jungle

Recent Comments

  • hammer85: > Guys please upload on some other sites. Earlier I only used Openload but now it isn't accessibl...
  • darci663: Anyone know what happened to Stan Against Evil S02E01-02? S02e03 is out, but not the two previous ep...
  • Sofor: Ever heard of the internet - obviously not. This site has worse response times than your grandma whe...
  • Ie 2017: How about you fix this shitplace so it works as any other normal website - you have more dropouts th...
  • thaone:

    Thank You

  • thaone:

    Thank You

  • thaone:

    Thank You

  • John Doe:

    Last comment was posted by mistake.

    Re-upload admin.

  • John Doe:

    http://rmz.cr/search/the+hunger+games+2012

  • John Doe:

    Re-upload Admin.