Sign Up   |   Sign In  
The 100th: Billy Joel at Madison Square Garden - The Greatest Arena Run of All TimeFamily GuyHundreds of BeaversI Was Reincarnated as the 7th Prince So I Can Take My Time Perfecting My Magical AbilityHomicide: New YorkAbba: How They Won EurovisionThe SympathizerTrackerDune: Part TwoModel HouseThe Great NorthKurt Cobain: Moments That Shook MusicWhen Calls the HeartSullivan's CrossingThe Batman vs. DraculaBeacon 23The ChannelThere's Still TomorrowFalloutShogunS.W.A.T.Trinket BoxTo Die ForThe Taste of ThingsFBI

Announcements

03/01

2024

1

Comments

Chicago Fire S12E06 Port in the Storm 1080p AMZN WEB-DL DDP5 1 H 264-FLUX
[RR/NF]
Size: 2.4GB mkv H264 (HIGH) / EAC3  HD  1920x1080

Chicago Fire
File Information
[img]http://lookpic.com/cdn/i2/t/0301202406361222-1.jpg[/img]
[img]http://lookpic.com/cdn/i2/t/0301202406361222-2.jpg[/img]
[img]http://lookpic.com/cdn/i2/t/0301202406361222-3.jpg[/img]

General
Unique ID                                : 320671665413956705275129616825661972622 (0xF13F1DC41D6C3F0F9D4EF1159D8AE08E)
Complete name                            : Chicago.Fire.S12E06.Port.in.the.Storm.1080p.AMZN.WEB-DL.DDP5.1.H.264-FLUX.mkv
Format                                   : Matroska
Format version                           : Version 4
File size                                : 2.45 GiB
Duration                                 : 41 min 37 s
Overall bit rate                         : 8 416 kb/s
Frame rate                               : 23.976 FPS
Writing application                      : mkvmerge v82.0 ('I'm The President') 64-bit
Writing library                          : libebml v1.4.5 + libmatroska v1.7.1

Video
ID                                       : 1
Format                                   : AVC
Format/Info                              : Advanced Video Codec
Format profile                           : High@L4
Format settings                          : CABAC / 4 Ref Frames
Format settings, CABAC                   : Yes
Format settings, Reference frames        : 4 frames
Codec ID                                 : V_MPEG4/ISO/AVC
Duration                                 : 41 min 37 s
Bit rate mode                            : Constant
Bit rate                                 : 7 773 kb/s
Nominal bit rate                         : 10 000 kb/s
Width                                    : 1 920 pixels
Height                                   : 1 080 pixels
Display aspect ratio                     : 16:9
Frame rate mode                          : Constant
Frame rate                               : 23.976 (24000/1001) FPS
Color space                              : YUV
Chroma subsampling                       : 4:2:0
Bit depth                                : 8 bits
Scan type                                : Progressive
Bits/(Pixel*Frame)                       : 0.156
Stream size                              : 2.26 GiB (92%)
Language                                 : English (US)
Default                                  : Yes
Forced                                   : No
Color range                              : Limited
Color primaries                          : BT.709
Transfer characteristics                 : BT.709
Matrix coefficients                      : BT.709

Audio
ID                                       : 2
Format                                   : E-AC-3
Format/Info                              : Enhanced AC-3
Commercial name                          : Dolby Digital Plus
Codec ID                                 : A_EAC3
Duration                                 : 41 min 37 s
Bit rate mode                            : Constant
Bit rate                                 : 640 kb/s
Channel(s)                               : 6 channels
Channel layout                           : L R C LFE Ls Rs
Sampling rate                            : 48.0 kHz
Frame rate                               : 31.250 FPS (1536 SPF)
Compression mode                         : Lossy
Stream size                              : 191 MiB (8%)
Language                                 : English
Service kind                             : Complete Main
Default                                  : Yes
Forced                                   : No

Text #1
ID                                       : 3
Format                                   : UTF-8
Codec ID                                 : S_TEXT/UTF8
Codec ID/Info                            : UTF-8 Plain Text
Duration                                 : 39 min 59 s
Bit rate                                 : 78 b/s
Frame rate                               : 0.317 FPS
Count of elements                        : 761
Stream size                              : 23.0 KiB (0%)
Language                                 : English (US)
Default                                  : No
Forced                                   : No

Text #2
ID                                       : 4
Format                                   : UTF-8
Codec ID                                 : S_TEXT/UTF8
Codec ID/Info                            : UTF-8 Plain Text
Duration                                 : 41 min 29 s
Bit rate                                 : 80 b/s
Frame rate                               : 0.341 FPS
Count of elements                        : 850
Stream size                              : 24.3 KiB (0%)
Title                                    : SDH
Language                                 : English (US)
Default                                  : No
Forced                                   : No

Menu
00:00:00.000                             : en:Scene 1
00:40:54.000                             : en:End Credits



Download
File Container: MKV
Video/Audio Codec: H264 (HIGH) EAC3
Video Resolution: 1920x1080

1 Response to "[RR/NF] Chicago Fire S12E06 Port in the Storm 1080p AMZN WEB-DL DDP5 1 H 264-FLUX (2.4GB)"
03/01/24
08:28:15
ReadyPlayerOne

Thank You

Please Login to post a comment.
If you don't have any account, please Register.
  • Subscribe my Feeds
  • Facebook
Encoding Queue:  x264  x265

Latest Episodes

Popular Movies and TV Shows

  • The 100th: Billy Joel at Madison Square Garden - The Greatest Arena Run of All Time
  • Family Guy
  • Hundreds of Beavers
  • I Was Reincarnated as the 7th Prince So I Can Take My Time Perfecting My Magical Ability
  • Homicide: New York
  • Abba: How They Won Eurovision
  • The Sympathizer
  • Tracker
  • Dune: Part Two
  • Model House
  • The Great North
  • Kurt Cobain: Moments That Shook Music
  • When Calls the Heart
  • Sullivan's Crossing
  • The Batman vs. Dracula
  • Beacon 23
  • The Channel
  • There's Still Tomorrow
  • Fallout
  • Shogun
  • S.W.A.T.
  • Trinket Box
  • To Die For
  • The Taste of Things
  • FBI

Recent Comments

  • Bud:

    Are you ever going to put up Thursday's episode with Liev Schreiber?

  • alp-engin:

    When will that maintenance be over? Please...

  • mentalityx:

    Rad bloke

  • DownloadHostInspector:

    so far these RMTeam uploads always have a working link. DownloadHostInspector approved!

  • DownloadHostInspector:

    ah yes, this upload has a host that works. clicknupload. DownloadHostInspector approved!

  • DownloadHostInspector: Why are all the download hosts trash? none of them let you download it
  • Qua4ratic:

    clicknupload link plz

  • ppoo:

    Please, can you add "Real Time with Bill Maher S22E11" ??

  • theahtisham:

    Kindly upload Ep. 3 and 4 as well.

Archives