Sign Up   |   Sign In  
ShoresyC*A*U*G*H*TThe ChiI Saw the TV GlowThe EgyptianNotas sobre un veranoThe Bold and the BeautifulThe Big CigarYoung SheldonGoodbye Uncle TomLSD 2: Love, Sex Aur Dhokha 2The PrestigeThe BoysWWE NXTWalkerBratsMower MinionsAssimilateEvilBridgertonCriminal MindsIn the Line of FireThe Artifice GirlCabriniThe Daily Show

Announcements

05/16

2024

1

Comments

Chicago Fire S12E12 Under Pressure 1080p AMZN WEB-DL DDP5 1 H 264-FLUX
[RR/NF]
Size: 2.7GB mkv H264 (HIGH) / EAC3  HD  1920x1080

Chicago Fire
File Information
[img]http://lookpic.com/cdn/i2/t/0516202408203442-1.jpg[/img]
[img]http://lookpic.com/cdn/i2/t/0516202408203442-2.jpg[/img]
[img]http://lookpic.com/cdn/i2/t/0516202408203442-3.jpg[/img]

General
Unique ID                                : 74499434273307740677128428965621298996 (0x380C11B28C78B89ADD5A06B1E7AE7734)
Complete name                            : Chicago Fire S12E12 Under Pressure 1080p AMZN WEB-DL DDP5 1 H 264-FLUX.mkv
Format                                   : Matroska
Format version                           : Version 4
File size                                : 2.72 GiB
Duration                                 : 41 min 47 s
Overall bit rate                         : 9 318 kb/s
Frame rate                               : 23.976 FPS
Writing application                      : mkvmerge v83.0 ('Circle Of Friends') 64-bit
Writing library                          : libebml v1.4.5 + libmatroska v1.7.1

Video
ID                                       : 1
Format                                   : AVC
Format/Info                              : Advanced Video Codec
Format profile                           : High@L4
Format settings                          : CABAC / 4 Ref Frames
Format settings, CABAC                   : Yes
Format settings, Reference frames        : 4 frames
Codec ID                                 : V_MPEG4/ISO/AVC
Duration                                 : 41 min 47 s
Bit rate mode                            : Constant
Bit rate                                 : 8 675 kb/s
Nominal bit rate                         : 10 000 kb/s
Width                                    : 1 920 pixels
Height                                   : 1 080 pixels
Display aspect ratio                     : 16:9
Frame rate mode                          : Constant
Frame rate                               : 23.976 (24000/1001) FPS
Color space                              : YUV
Chroma subsampling                       : 4:2:0
Bit depth                                : 8 bits
Scan type                                : Progressive
Bits/(Pixel*Frame)                       : 0.174
Stream size                              : 2.53 GiB (93%)
Language                                 : English (US)
Default                                  : Yes
Forced                                   : No
Color range                              : Limited
Color primaries                          : BT.709
Transfer characteristics                 : BT.709
Matrix coefficients                      : BT.709

Audio
ID                                       : 2
Format                                   : E-AC-3
Format/Info                              : Enhanced AC-3
Commercial name                          : Dolby Digital Plus
Codec ID                                 : A_EAC3
Duration                                 : 41 min 47 s
Bit rate mode                            : Constant
Bit rate                                 : 640 kb/s
Channel(s)                               : 6 channels
Channel layout                           : L R C LFE Ls Rs
Sampling rate                            : 48.0 kHz
Frame rate                               : 31.250 FPS (1536 SPF)
Compression mode                         : Lossy
Stream size                              : 191 MiB (7%)
Language                                 : English
Service kind                             : Complete Main
Default                                  : Yes
Forced                                   : No

Text #1
ID                                       : 3
Format                                   : UTF-8
Codec ID                                 : S_TEXT/UTF8
Codec ID/Info                            : UTF-8 Plain Text
Duration                                 : 40 min 52 s
Bit rate                                 : 81 b/s
Frame rate                               : 0.342 FPS
Count of elements                        : 838
Stream size                              : 24.5 KiB (0%)
Language                                 : English (US)
Default                                  : No
Forced                                   : No

Text #2
ID                                       : 4
Format                                   : UTF-8
Codec ID                                 : S_TEXT/UTF8
Codec ID/Info                            : UTF-8 Plain Text
Duration                                 : 41 min 39 s
Bit rate                                 : 84 b/s
Frame rate                               : 0.367 FPS
Count of elements                        : 917
Stream size                              : 25.8 KiB (0%)
Title                                    : SDH
Language                                 : English (US)
Default                                  : No
Forced                                   : No

Menu
00:00:00.000                             : en:Scene 1
00:41:42.000                             : en:Outro



Download
File Container: MKV
Video/Audio Codec: H264 (HIGH) EAC3
Video Resolution: 1920x1080

1 Response to "[RR/NF] Chicago Fire S12E12 Under Pressure 1080p AMZN WEB-DL DDP5 1 H 264-FLUX (2.7GB)"
05/16/24
11:46:23
ReadyPlayerOne

Thank You

Please Login to post a comment.
If you don't have any account, please Register.
  • Subscribe my Feeds
  • Facebook
Encoding Queue:  x264  x265

Latest Episodes

Popular Movies and TV Shows

  • Shoresy
  • C*A*U*G*H*T
  • The Chi
  • I Saw the TV Glow
  • The Egyptian
  • Notas sobre un verano
  • The Bold and the Beautiful
  • The Big Cigar
  • Young Sheldon
  • Goodbye Uncle Tom
  • LSD 2: Love, Sex Aur Dhokha 2
  • The Prestige
  • The Boys
  • WWE NXT
  • Walker
  • Brats
  • Mower Minions
  • Assimilate
  • Evil
  • Bridgerton
  • Criminal Minds
  • In the Line of Fire
  • The Artifice Girl
  • Cabrini
  • The Daily Show

Recent Comments

Archives