Sign Up   |   Sign In  
SistasThe ChosenThe ChiI Saw the TV GlowBratsInside Out 2The Bold and the BeautifulShoresyThe Big CigarNotas sobre un veranoThe EgyptianThe PrestigeWWE NXTThe BoysWalkerMower MinionsAssimilateFentasyEvilBridgertonCriminal MindsIn the Line of FireThe Artifice GirlLamp LifeThe Daily Show

Announcements

05/16

2024

1

Comments

Chicago Med S09E12 Get By with a Little Help from My Friends 720p AMZN WEB-DL DDP5 1 H 264-FLUX
[RR/NF/CU]
Size: 1.8GB mkv H264 (HIGH) / EAC3  HD  1280x720

Chicago Med
File Information
[img]http://lookpic.com/cdn/i2/t/0516202407303510-1.jpg[/img]
[img]http://lookpic.com/cdn/i2/t/0516202407303510-2.jpg[/img]
[img]http://lookpic.com/cdn/i2/t/0516202407303510-3.jpg[/img]

General
Unique ID                                : 240516106951126219011376828523037157208 (0xB4F1B79D985E1A73A9CAA6E6CB096758)
Complete name                            : Chicago Med S09E12 Get By with a Little Help from My Friends 720p AMZN WEB-DL DDP5 1 H 264-FLUX.mkv
Format                                   : Matroska
Format version                           : Version 4
File size                                : 1.83 GiB
Duration                                 : 41 min 48 s
Overall bit rate                         : 6 280 kb/s
Frame rate                               : 23.976 FPS
Writing application                      : mkvmerge v83.0 ('Circle Of Friends') 64-bit
Writing library                          : libebml v1.4.5 + libmatroska v1.7.1

Video
ID                                       : 1
Format                                   : AVC
Format/Info                              : Advanced Video Codec
Format profile                           : High@L3.1
Format settings                          : CABAC / 4 Ref Frames
Format settings, CABAC                   : Yes
Format settings, Reference frames        : 4 frames
Codec ID                                 : V_MPEG4/ISO/AVC
Duration                                 : 41 min 48 s
Bit rate mode                            : Constant
Bit rate                                 : 5 638 kb/s
Nominal bit rate                         : 6 000 kb/s
Width                                    : 1 280 pixels
Height                                   : 720 pixels
Display aspect ratio                     : 16:9
Frame rate mode                          : Constant
Frame rate                               : 23.976 (24000/1001) FPS
Color space                              : YUV
Chroma subsampling                       : 4:2:0
Bit depth                                : 8 bits
Scan type                                : Progressive
Bits/(Pixel*Frame)                       : 0.255
Stream size                              : 1.65 GiB (90%)
Language                                 : English (US)
Default                                  : Yes
Forced                                   : No
Color range                              : Limited
Color primaries                          : BT.709
Transfer characteristics                 : BT.709
Matrix coefficients                      : BT.709

Audio
ID                                       : 2
Format                                   : E-AC-3
Format/Info                              : Enhanced AC-3
Commercial name                          : Dolby Digital Plus
Codec ID                                 : A_EAC3
Duration                                 : 41 min 48 s
Bit rate mode                            : Constant
Bit rate                                 : 640 kb/s
Channel(s)                               : 6 channels
Channel layout                           : L R C LFE Ls Rs
Sampling rate                            : 48.0 kHz
Frame rate                               : 31.250 FPS (1536 SPF)
Compression mode                         : Lossy
Stream size                              : 191 MiB (10%)
Language                                 : English
Service kind                             : Complete Main
Default                                  : Yes
Forced                                   : No

Text #1
ID                                       : 3
Format                                   : UTF-8
Codec ID                                 : S_TEXT/UTF8
Codec ID/Info                            : UTF-8 Plain Text
Duration                                 : 40 min 34 s
Bit rate                                 : 88 b/s
Frame rate                               : 0.370 FPS
Count of elements                        : 900
Stream size                              : 26.2 KiB (0%)
Language                                 : English (US)
Default                                  : No
Forced                                   : No

Text #2
ID                                       : 4
Format                                   : UTF-8
Codec ID                                 : S_TEXT/UTF8
Codec ID/Info                            : UTF-8 Plain Text
Duration                                 : 41 min 39 s
Bit rate                                 : 91 b/s
Frame rate                               : 0.397 FPS
Count of elements                        : 993
Stream size                              : 28.0 KiB (0%)
Title                                    : SDH
Language                                 : English (US)
Default                                  : No
Forced                                   : No

Menu
00:00:00.000                             : en:Scene 1
00:41:01.000                             : en:End Credits



Download
File Container: MKV
Video/Audio Codec: H264 (HIGH) EAC3
Video Resolution: 1280x720

1 Response to "[RR/NF/CU] Chicago Med S09E12 Get By with a Little Help from My Friends 720p AMZN WEB-DL DDP5 1 H 264-FLUX (1.8GB)"
05/16/24
07:56:57
ReadyPlayerOne

Thank You

Please Login to post a comment.
If you don't have any account, please Register.
  • Subscribe my Feeds
  • Facebook
Encoding Queue:  x264  x265

Latest Episodes

Popular Movies and TV Shows

  • Sistas
  • The Chosen
  • The Chi
  • I Saw the TV Glow
  • Brats
  • Inside Out 2
  • The Bold and the Beautiful
  • Shoresy
  • The Big Cigar
  • Notas sobre un verano
  • The Egyptian
  • The Prestige
  • WWE NXT
  • The Boys
  • Walker
  • Mower Minions
  • Assimilate
  • Fentasy
  • Evil
  • Bridgerton
  • Criminal Minds
  • In the Line of Fire
  • The Artifice Girl
  • Lamp Life
  • The Daily Show

Recent Comments

Archives