Sign Up   |   Sign In  
Star Trek: DiscoveryEvilWalkerEileenMoviePass, MovieCrashThis Is SparklehorseColin from AccountsWWE NXTInsomniaButterfly in the SkyThe Fall GuyHoax: The Kidnapping of Sherri PapiniFuriosa: A Mad Max SagaDark MatterMasterChef AustraliaMacGyverThe Feeling That the Time for Doing Something Has PassedAutoeroticUnder the BridgeThe Big Door PrizeWWE RawCivil WarYour Mother's SonMahal ko ang mahal moThe Daily Show

Announcements

04/18

2024

1

Comments

Chucky S03E06 Panic Room 1080p AMZN WEB-DL DDP5 1 H 264-FLUX
[RR/NF]
Size: 2.3GB mkv H264 (HIGH) / EAC3  HD  1920x960

Chucky
File Information
[img]http://lookpic.com/cdn/i2/t/0418202407344636-1.jpg[/img]
[img]http://lookpic.com/cdn/i2/t/0418202407344636-2.jpg[/img]
[img]http://lookpic.com/cdn/i2/t/0418202407344636-3.jpg[/img]

General
Unique ID                                : 236789387347867892363998894512938710432 (0xB223FA2733118121AB9F147DEF1875A0)
Complete name                            : Chucky S03E06 Panic Room 1080p AMZN WEB-DL DDP5 1 H 264-FLUX.mkv
Format                                   : Matroska
Format version                           : Version 4
File size                                : 2.27 GiB
Duration                                 : 41 min 52 s
Overall bit rate                         : 7 763 kb/s
Frame rate                               : 23.976 FPS
Writing application                      : mkvmerge v83.0 ('Circle Of Friends') 64-bit
Writing library                          : libebml v1.4.5 + libmatroska v1.7.1

Video
ID                                       : 1
Format                                   : AVC
Format/Info                              : Advanced Video Codec
Format profile                           : High@L4
Format settings                          : CABAC / 4 Ref Frames
Format settings, CABAC                   : Yes
Format settings, Reference frames        : 4 frames
Codec ID                                 : V_MPEG4/ISO/AVC
Duration                                 : 41 min 52 s
Bit rate mode                            : Constant
Bit rate                                 : 7 121 kb/s
Nominal bit rate                         : 10 000 kb/s
Width                                    : 1 920 pixels
Height                                   : 960 pixels
Display aspect ratio                     : 2.000
Frame rate mode                          : Constant
Frame rate                               : 23.976 (24000/1001) FPS
Color space                              : YUV
Chroma subsampling                       : 4:2:0
Bit depth                                : 8 bits
Scan type                                : Progressive
Bits/(Pixel*Frame)                       : 0.161
Stream size                              : 2.08 GiB (92%)
Language                                 : English (US)
Default                                  : Yes
Forced                                   : No
Color range                              : Limited
Color primaries                          : BT.709
Transfer characteristics                 : BT.709
Matrix coefficients                      : BT.709

Audio
ID                                       : 2
Format                                   : E-AC-3
Format/Info                              : Enhanced AC-3
Commercial name                          : Dolby Digital Plus
Codec ID                                 : A_EAC3
Duration                                 : 41 min 52 s
Bit rate mode                            : Constant
Bit rate                                 : 640 kb/s
Channel(s)                               : 6 channels
Channel layout                           : L R C LFE Ls Rs
Sampling rate                            : 48.0 kHz
Frame rate                               : 31.250 FPS (1536 SPF)
Compression mode                         : Lossy
Stream size                              : 192 MiB (8%)
Language                                 : English
Service kind                             : Complete Main
Default                                  : Yes
Forced                                   : No

Text #1
ID                                       : 3
Format                                   : UTF-8
Codec ID                                 : S_TEXT/UTF8
Codec ID/Info                            : UTF-8 Plain Text
Duration                                 : 40 min 42 s
Bit rate                                 : 56 b/s
Frame rate                               : 0.245 FPS
Count of elements                        : 599
Stream size                              : 16.9 KiB (0%)
Language                                 : English (US)
Default                                  : No
Forced                                   : No

Text #2
ID                                       : 4
Format                                   : UTF-8
Codec ID                                 : S_TEXT/UTF8
Codec ID/Info                            : UTF-8 Plain Text
Duration                                 : 41 min 28 s
Bit rate                                 : 63 b/s
Frame rate                               : 0.304 FPS
Count of elements                        : 757
Stream size                              : 19.3 KiB (0%)
Title                                    : SDH
Language                                 : English (US)
Default                                  : No
Forced                                   : No

Menu
00:00:00.000                             : en:Scene 1
00:41:47.000                             : en:Outro



Download
File Container: MKV
Video/Audio Codec: H264 (HIGH) EAC3
Video Resolution: 1920x960

1 Response to "[RR/NF] Chucky S03E06 Panic Room 1080p AMZN WEB-DL DDP5 1 H 264-FLUX (2.3GB)"
04/18/24
09:28:31
ReadyPlayerOne

Thank You

Please Login to post a comment.
If you don't have any account, please Register.
  • Subscribe my Feeds
  • Facebook
Encoding Queue:  x264  x265

Latest Episodes

Popular Movies and TV Shows

  • Star Trek: Discovery
  • Evil
  • Walker
  • Eileen
  • MoviePass, MovieCrash
  • This Is Sparklehorse
  • Colin from Accounts
  • WWE NXT
  • Insomnia
  • Butterfly in the Sky
  • The Fall Guy
  • Hoax: The Kidnapping of Sherri Papini
  • Furiosa: A Mad Max Saga
  • Dark Matter
  • MasterChef Australia
  • MacGyver
  • The Feeling That the Time for Doing Something Has Passed
  • Autoerotic
  • Under the Bridge
  • The Big Door Prize
  • WWE Raw
  • Civil War
  • Your Mother's Son
  • Mahal ko ang mahal mo
  • The Daily Show

Recent Comments

  • PlayboiCarti: ClicknUpload still works fine for me as a free user. They just changed 4 digit code to hCaptcha. But...
  • dma: @admin It appears that ClickNupload is no longer usable for free users. Don't know about paying use...
  • Bionicone: Yea this is not the Bluray version. This is another Cam. This thing should be taken down. Do not dow...
  • spiderspinner: Bud:The same thing started happening to me last night and I've used four different browsers yet they...
  • timt:

    Junk, CAM

  • upx:

    WARNING:This is NOT a BluRay rip. It's a CAMrip.

  • Bud: Is clicknupload borked for anyone else now, or is it just me? In recent months it's only worked in...
  • mentalityx:

    Rad bloke!

  • waanaabe: I hope someone follows through with the rest! also, did not check every post but hoping future ones ...
  • Demonz:

    Holy popups ClickNupload

  • rambaldi70:

    this release sort cut! 1h33m12 !
    imdb - 1h 54m

  • rambaldi70: This release the first bad source 1h33m12 - stop the play this release sort cut! 1h33m12 ! imdb - 1h...
  • rambaldi70:

    this release sort cut! 1h33m12 !
    imdb - 1h 54m

  • dilliboy: Will we ever see these RMTeam releases ever again? I hope they're not lost to the digital graveyard ...
  • kang:

    NitroFlare's link is missing...

  • kang:

    NitroFlare's link is missing...

  • tchamast:

    @Wrapt

    I've seen that too, don't know why.

  • Rafi85: Hi thx for the 14th season. Is it possible to reupload some episodes plz they were removed. These ar...
  • KubrickFan:

    Any possibility of a fresh link for this?

  • GubeShitemon: This is a different movie to the artwork version. Not the Dylan McDermott film but the Ben Affleck f...

Archives