Sign Up   |   Sign In  
ShogunMonkey ManNCISArthur the KingNCIS: Hawai'iDowntown OwlThe NeighborhoodBob Hearts AbisholaAll AmericanOne LifeWhich Brings Me to YouThe CostTrackerFalloutThe SimpsonsTime AddictsKung Fu Panda 4Rebel Moon - Part Two: The ScargiverThe SympathizerCSI: VegasThe EqualizerFern Brady: Autistic Bikini QueenTigers on the RiseTigerBeacon 23

Announcements

02/23

2024

1

Comments

Constellation S01E02 Live And Let Die 1080p ATVP WEB-DL DDP5 1 H 264-NTb
[RR/NF]
Size: 4.1GB mkv H264 (HIGH) / EAC3  HD  1920x1080

Constellation
File Information
[img]http://lookpic.com/cdn/i2/t/0222202414293140-1.jpg[/img]
[img]http://lookpic.com/cdn/i2/t/0222202414293140-2.jpg[/img]
[img]http://lookpic.com/cdn/i2/t/0222202414293140-3.jpg[/img]

General
Unique ID                                : 53347747202240983425936882314187961116 (0x282267026431C3D970CFEAC7BAE8F31C)
Complete name                            : Constellation.S01E02.Live.And.Let.Die.1080p.ATVP.WEB-DL.DDP5.1.H.264-NTb.mkv
Format                                   : Matroska
Format version                           : Version 4
File size                                : 4.13 GiB
Duration                                 : 54 min 38 s
Overall bit rate                         : 10.8 Mb/s
Frame rate                               : 23.976 FPS
Writing application                      : mkvmerge v81.0 ('Milliontown') 64-bit
Writing library                          : libebml v1.4.4 + libmatroska v1.7.1

Video
ID                                       : 1
Format                                   : AVC
Format/Info                              : Advanced Video Codec
Format profile                           : High@L4
Format settings                          : CABAC / 4 Ref Frames
Format settings, CABAC                   : Yes
Format settings, Reference frames        : 4 frames
Codec ID                                 : V_MPEG4/ISO/AVC
Duration                                 : 54 min 38 s
Bit rate                                 : 10.0 Mb/s
Width                                    : 1 920 pixels
Height                                   : 1 080 pixels
Display aspect ratio                     : 16:9
Frame rate mode                          : Constant
Frame rate                               : 23.976 (24000/1001) FPS
Color space                              : YUV
Chroma subsampling                       : 4:2:0
Bit depth                                : 8 bits
Scan type                                : Progressive
Bits/(Pixel*Frame)                       : 0.202
Stream size                              : 3.83 GiB (93%)
Default                                  : Yes
Forced                                   : No
Color range                              : Limited
Color primaries                          : BT.709
Transfer characteristics                 : BT.709
Matrix coefficients                      : BT.709

Audio
ID                                       : 2
Format                                   : E-AC-3 JOC
Format/Info                              : Enhanced AC-3 with Joint Object Coding
Commercial name                          : Dolby Digital Plus with Dolby Atmos
Codec ID                                 : A_EAC3
Duration                                 : 54 min 38 s
Bit rate mode                            : Constant
Bit rate                                 : 768 kb/s
Channel(s)                               : 6 channels
Channel layout                           : L R C LFE Ls Rs
Sampling rate                            : 48.0 kHz
Frame rate                               : 31.250 FPS (1536 SPF)
Compression mode                         : Lossy
Stream size                              : 300 MiB (7%)
Language                                 : English
Service kind                             : Complete Main
Default                                  : Yes
Forced                                   : No
Complexity index                         : 16
Number of dynamic objects                : 15
Bed channel count                        : 1 channel
Bed channel configuration                : LFE

Text #1
ID                                       : 3
Format                                   : UTF-8
Codec ID                                 : S_TEXT/UTF8
Codec ID/Info                            : UTF-8 Plain Text
Duration                                 : 39 min 35 s
Bit rate                                 : 2 b/s
Frame rate                               : 0.009 FPS
Count of elements                        : 21
Stream size                              : 755 Bytes (0%)
Title                                    : Forced
Language                                 : English
Default                                  : Yes
Forced                                   : Yes

Text #2
ID                                       : 4
Format                                   : UTF-8
Codec ID                                 : S_TEXT/UTF8
Codec ID/Info                            : UTF-8 Plain Text
Duration                                 : 52 min 36 s
Bit rate                                 : 35 b/s
Frame rate                               : 0.144 FPS
Count of elements                        : 456
Stream size                              : 13.6 KiB (0%)
Language                                 : English
Default                                  : No
Forced                                   : No

Text #3
ID                                       : 5
Format                                   : UTF-8
Codec ID                                 : S_TEXT/UTF8
Codec ID/Info                            : UTF-8 Plain Text
Duration                                 : 53 min 11 s
Bit rate                                 : 44 b/s
Frame rate                               : 0.191 FPS
Count of elements                        : 608
Stream size                              : 17.5 KiB (0%)
Title                                    : SDH
Language                                 : English
Default                                  : No
Forced                                   : No

Text #4
ID                                       : 6
Format                                   : UTF-8
Codec ID                                 : S_TEXT/UTF8
Codec ID/Info                            : UTF-8 Plain Text
Duration                                 : 54 min 15 s
Bit rate                                 : 50 b/s
Frame rate                               : 0.142 FPS
Count of elements                        : 463
Stream size                              : 20.1 KiB (0%)
Language                                 : Arabic
Default                                  : No
Forced                                   : No

Text #5
ID                                       : 7
Format                                   : UTF-8
Codec ID                                 : S_TEXT/UTF8
Codec ID/Info                            : UTF-8 Plain Text
Duration                                 : 54 min 15 s
Bit rate                                 : 48 b/s
Frame rate                               : 0.109 FPS
Count of elements                        : 355
Stream size                              : 19.2 KiB (0%)
Language                                 : Bulgarian
Default                                  : No
Forced                                   : No

Text #6
ID                                       : 8
Format                                   : UTF-8
Codec ID                                 : S_TEXT/UTF8
Codec ID/Info                            : UTF-8 Plain Text
Duration                                 : 54 min 15 s
Bit rate                                 : 32 b/s
Frame rate                               : 0.143 FPS
Count of elements                        : 466
Stream size                              : 12.9 KiB (0%)
Title                                    : Chinese (Simplified)
Language                                 : Chinese (Simplified)
Default                                  : No
Forced                                   : No

Text #7
ID                                       : 9
Format                                   : UTF-8
Codec ID                                 : S_TEXT/UTF8
Codec ID/Info                            : UTF-8 Plain Text
Duration                                 : 54 min 15 s
Bit rate                                 : 31 b/s
Frame rate                               : 0.143 FPS
Count of elements                        : 467
Stream size                              : 12.5 KiB (0%)
Title                                    : Chinese (Traditional)
Language                                 : Chinese (Traditional)
Default                                  : No
Forced                                   : No

Text #8
ID                                       : 10
Format                                   : UTF-8
Codec ID                                 : S_TEXT/UTF8
Codec ID/Info                            : UTF-8 Plain Text
Duration                                 : 54 min 15 s
Bit rate                                 : 32 b/s
Frame rate                               : 0.137 FPS
Count of elements                        : 447
Stream size                              : 12.9 KiB (0%)
Language                                 : Czech
Default                                  : No
Forced                                   : No

Text #9
ID                                       : 11
Format                                   : UTF-8
Codec ID                                 : S_TEXT/UTF8
Codec ID/Info                            : UTF-8 Plain Text
Duration                                 : 54 min 15 s
Bit rate                                 : 35 b/s
Frame rate                               : 0.138 FPS
Count of elements                        : 448
Stream size                              : 13.9 KiB (0%)
Language                                 : Danish
Default                                  : No
Forced                                   : No

Text #10
ID                                       : 12
Format                                   : UTF-8
Codec ID                                 : S_TEXT/UTF8
Codec ID/Info                            : UTF-8 Plain Text
Duration                                 : 54 min 15 s
Bit rate                                 : 34 b/s
Frame rate                               : 0.129 FPS
Count of elements                        : 419
Stream size                              : 13.6 KiB (0%)
Language                                 : German
Default                                  : No
Forced                                   : No

Text #11
ID                                       : 13
Format                                   : UTF-8
Codec ID                                 : S_TEXT/UTF8
Codec ID/Info                            : UTF-8 Plain Text
Duration                                 : 54 min 15 s
Bit rate                                 : 58 b/s
Frame rate                               : 0.138 FPS
Count of elements                        : 449
Stream size                              : 23.3 KiB (0%)
Language                                 : Greek
Default                                  : No
Forced                                   : No

Text #12
ID                                       : 14
Format                                   : UTF-8
Codec ID                                 : S_TEXT/UTF8
Codec ID/Info                            : UTF-8 Plain Text
Duration                                 : 54 min 15 s
Bit rate                                 : 34 b/s
Frame rate                               : 0.143 FPS
Count of elements                        : 464
Stream size                              : 13.9 KiB (0%)
Title                                    : Spanish (Latin America)
Language                                 : Spanish (Latin America)
Default                                  : No
Forced                                   : No

Text #13
ID                                       : 15
Format                                   : UTF-8
Codec ID                                 : S_TEXT/UTF8
Codec ID/Info                            : UTF-8 Plain Text
Duration                                 : 54 min 15 s
Bit rate                                 : 35 b/s
Frame rate                               : 0.145 FPS
Count of elements                        : 473
Stream size                              : 14.3 KiB (0%)
Title                                    : Spanish (Spain)
Language                                 : Spanish (ES)
Default                                  : No
Forced                                   : No

Text #14
ID                                       : 16
Format                                   : UTF-8
Codec ID                                 : S_TEXT/UTF8
Codec ID/Info                            : UTF-8 Plain Text
Duration                                 : 54 min 15 s
Bit rate                                 : 32 b/s
Frame rate                               : 0.139 FPS
Count of elements                        : 453
Stream size                              : 13.0 KiB (0%)
Language                                 : Estonian
Default                                  : No
Forced                                   : No

Text #15
ID                                       : 17
Format                                   : UTF-8
Codec ID                                 : S_TEXT/UTF8
Codec ID/Info                            : UTF-8 Plain Text
Duration                                 : 54 min 15 s
Bit rate                                 : 32 b/s
Frame rate                               : 0.134 FPS
Count of elements                        : 436
Stream size                              : 13.1 KiB (0%)
Language                                 : Finnish
Default                                  : No
Forced                                   : No

Text #16
ID                                       : 18
Format                                   : UTF-8
Codec ID                                 : S_TEXT/UTF8
Codec ID/Info                            : UTF-8 Plain Text
Duration                                 : 54 min 12 s
Bit rate                                 : 31 b/s
Frame rate                               : 0.146 FPS
Count of elements                        : 476
Stream size                              : 12.6 KiB (0%)
Title                                    : French (Canada)
Language                                 : French (CA)
Default                                  : No
Forced                                   : No

Text #17
ID                                       : 19
Format                                   : UTF-8
Codec ID                                 : S_TEXT/UTF8
Codec ID/Info                            : UTF-8 Plain Text
Duration                                 : 54 min 12 s
Bit rate                                 : 31 b/s
Frame rate                               : 0.146 FPS
Count of elements                        : 476
Stream size                              : 12.6 KiB (0%)
Title                                    : French (France)
Language                                 : French (FR)
Default                                  : No
Forced                                   : No

Text #18
ID                                       : 20
Format                                   : UTF-8
Codec ID                                 : S_TEXT/UTF8
Codec ID/Info                            : UTF-8 Plain Text
Duration                                 : 54 min 15 s
Bit rate                                 : 46 b/s
Frame rate                               : 0.143 FPS
Count of elements                        : 466
Stream size                              : 18.4 KiB (0%)
Language                                 : Hebrew
Default                                  : No
Forced                                   : No

Text #19
ID                                       : 21
Format                                   : UTF-8
Codec ID                                 : S_TEXT/UTF8
Codec ID/Info                            : UTF-8 Plain Text
Duration                                 : 54 min 15 s
Bit rate                                 : 91 b/s
Frame rate                               : 0.143 FPS
Count of elements                        : 467
Stream size                              : 36.2 KiB (0%)
Language                                 : Hindi
Default                                  : No
Forced                                   : No

Text #20
ID                                       : 22
Format                                   : UTF-8
Codec ID                                 : S_TEXT/UTF8
Codec ID/Info                            : UTF-8 Plain Text
Duration                                 : 54 min 15 s
Bit rate                                 : 36 b/s
Frame rate                               : 0.143 FPS
Count of elements                        : 464
Stream size                              : 14.5 KiB (0%)
Language                                 : Hungarian
Default                                  : No
Forced                                   : No

Text #21
ID                                       : 23
Format                                   : UTF-8
Codec ID                                 : S_TEXT/UTF8
Codec ID/Info                            : UTF-8 Plain Text
Duration                                 : 54 min 15 s
Bit rate                                 : 34 b/s
Frame rate                               : 0.143 FPS
Count of elements                        : 465
Stream size                              : 13.5 KiB (0%)
Language                                 : Indonesian
Default                                  : No
Forced                                   : No

Text #22
ID                                       : 24
Format                                   : UTF-8
Codec ID                                 : S_TEXT/UTF8
Codec ID/Info                            : UTF-8 Plain Text
Duration                                 : 54 min 25 s
Bit rate                                 : 45 b/s
Frame rate                               : 0.188 FPS
Count of elements                        : 613
Stream size                              : 18.3 KiB (0%)
Language                                 : Italian
Default                                  : No
Forced                                   : No

Text #23
ID                                       : 25
Format                                   : UTF-8
Codec ID                                 : S_TEXT/UTF8
Codec ID/Info                            : UTF-8 Plain Text
Duration                                 : 54 min 16 s
Bit rate                                 : 29 b/s
Frame rate                               : 0.135 FPS
Count of elements                        : 439
Stream size                              : 11.5 KiB (0%)
Language                                 : Japanese
Default                                  : No
Forced                                   : No

Text #24
ID                                       : 26
Format                                   : UTF-8
Codec ID                                 : S_TEXT/UTF8
Codec ID/Info                            : UTF-8 Plain Text
Duration                                 : 54 min 15 s
Bit rate                                 : 36 b/s
Frame rate                               : 0.143 FPS
Count of elements                        : 467
Stream size                              : 14.6 KiB (0%)
Language                                 : Korean
Default                                  : No
Forced                                   : No

Text #25
ID                                       : 27
Format                                   : UTF-8
Codec ID                                 : S_TEXT/UTF8
Codec ID/Info                            : UTF-8 Plain Text
Duration                                 : 54 min 15 s
Bit rate                                 : 35 b/s
Frame rate                               : 0.143 FPS
Count of elements                        : 465
Stream size                              : 14.1 KiB (0%)
Language                                 : Lithuanian
Default                                  : No
Forced                                   : No

Text #26
ID                                       : 28
Format                                   : UTF-8
Codec ID                                 : S_TEXT/UTF8
Codec ID/Info                            : UTF-8 Plain Text
Duration                                 : 54 min 15 s
Bit rate                                 : 35 b/s
Frame rate                               : 0.141 FPS
Count of elements                        : 459
Stream size                              : 14.3 KiB (0%)
Language                                 : Latvian
Default                                  : No
Forced                                   : No

Text #27
ID                                       : 29
Format                                   : UTF-8
Codec ID                                 : S_TEXT/UTF8
Codec ID/Info                            : UTF-8 Plain Text
Duration                                 : 54 min 15 s
Bit rate                                 : 33 b/s
Frame rate                               : 0.143 FPS
Count of elements                        : 464
Stream size                              : 13.3 KiB (0%)
Language                                 : Malay
Default                                  : No
Forced                                   : No

Text #28
ID                                       : 30
Format                                   : UTF-8
Codec ID                                 : S_TEXT/UTF8
Codec ID/Info                            : UTF-8 Plain Text
Duration                                 : 54 min 15 s
Bit rate                                 : 31 b/s
Frame rate                               : 0.109 FPS
Count of elements                        : 355
Stream size                              : 12.3 KiB (0%)
Language                                 : Dutch
Default                                  : No
Forced                                   : No

Text #29
ID                                       : 31
Format                                   : UTF-8
Codec ID                                 : S_TEXT/UTF8
Codec ID/Info                            : UTF-8 Plain Text
Duration                                 : 54 min 15 s
Bit rate                                 : 33 b/s
Frame rate                               : 0.138 FPS
Count of elements                        : 449
Stream size                              : 13.2 KiB (0%)
Language                                 : Norwegian
Default                                  : No
Forced                                   : No

Text #30
ID                                       : 32
Format                                   : UTF-8
Codec ID                                 : S_TEXT/UTF8
Codec ID/Info                            : UTF-8 Plain Text
Duration                                 : 54 min 15 s
Bit rate                                 : 32 b/s
Frame rate                               : 0.135 FPS
Count of elements                        : 440
Stream size                              : 12.8 KiB (0%)
Language                                 : Polish
Default                                  : No
Forced                                   : No

Text #31
ID                                       : 33
Format                                   : UTF-8
Codec ID                                 : S_TEXT/UTF8
Codec ID/Info                            : UTF-8 Plain Text
Duration                                 : 54 min 15 s
Bit rate                                 : 33 b/s
Frame rate                               : 0.141 FPS
Count of elements                        : 459
Stream size                              : 13.4 KiB (0%)
Title                                    : Portuguese
Language                                 : Portuguese
Default                                  : No
Forced                                   : No

Text #32
ID                                       : 34
Format                                   : UTF-8
Codec ID                                 : S_TEXT/UTF8
Codec ID/Info                            : UTF-8 Plain Text
Duration                                 : 54 min 15 s
Bit rate                                 : 32 b/s
Frame rate                               : 0.141 FPS
Count of elements                        : 458
Stream size                              : 13.0 KiB (0%)
Title                                    : Portuguese (Brazil)
Language                                 : Portuguese (BR)
Default                                  : No
Forced                                   : No

Text #33
ID                                       : 35
Format                                   : UTF-8
Codec ID                                 : S_TEXT/UTF8
Codec ID/Info                            : UTF-8 Plain Text
Duration                                 : 54 min 15 s
Bit rate                                 : 55 b/s
Frame rate                               : 0.145 FPS
Count of elements                        : 473
Stream size                              : 22.2 KiB (0%)
Language                                 : Russian
Default                                  : No
Forced                                   : No

Text #34
ID                                       : 36
Format                                   : UTF-8
Codec ID                                 : S_TEXT/UTF8
Codec ID/Info                            : UTF-8 Plain Text
Duration                                 : 54 min 15 s
Bit rate                                 : 31 b/s
Frame rate                               : 0.142 FPS
Count of elements                        : 461
Stream size                              : 12.7 KiB (0%)
Language                                 : Slovak
Default                                  : No
Forced                                   : No

Text #35
ID                                       : 37
Format                                   : UTF-8
Codec ID                                 : S_TEXT/UTF8
Codec ID/Info                            : UTF-8 Plain Text
Duration                                 : 54 min 15 s
Bit rate                                 : 29 b/s
Frame rate                               : 0.136 FPS
Count of elements                        : 442
Stream size                              : 11.6 KiB (0%)
Language                                 : Slovenian
Default                                  : No
Forced                                   : No

Text #36
ID                                       : 38
Format                                   : UTF-8
Codec ID                                 : S_TEXT/UTF8
Codec ID/Info                            : UTF-8 Plain Text
Duration                                 : 54 min 15 s
Bit rate                                 : 36 b/s
Frame rate                               : 0.141 FPS
Count of elements                        : 460
Stream size                              : 14.4 KiB (0%)
Language                                 : Swedish
Default                                  : No
Forced                                   : No

Text #37
ID                                       : 39
Format                                   : UTF-8
Codec ID                                 : S_TEXT/UTF8
Codec ID/Info                            : UTF-8 Plain Text
Duration                                 : 54 min 15 s
Bit rate                                 : 101 b/s
Frame rate                               : 0.143 FPS
Count of elements                        : 466
Stream size                              : 40.2 KiB (0%)
Language                                 : Tamil
Default                                  : No
Forced                                   : No

Text #38
ID                                       : 40
Format                                   : UTF-8
Codec ID                                 : S_TEXT/UTF8
Codec ID/Info                            : UTF-8 Plain Text
Duration                                 : 54 min 15 s
Bit rate                                 : 104 b/s
Frame rate                               : 0.143 FPS
Count of elements                        : 466
Stream size                              : 41.3 KiB (0%)
Language                                 : Telugu
Default                                  : No
Forced                                   : No

Text #39
ID                                       : 41
Format                                   : UTF-8
Codec ID                                 : S_TEXT/UTF8
Codec ID/Info                            : UTF-8 Plain Text
Duration                                 : 54 min 15 s
Bit rate                                 : 84 b/s
Frame rate                               : 0.143 FPS
Count of elements                        : 466
Stream size                              : 33.6 KiB (0%)
Language                                 : Thai
Default                                  : No
Forced                                   : No

Text #40
ID                                       : 42
Format                                   : UTF-8
Codec ID                                 : S_TEXT/UTF8
Codec ID/Info                            : UTF-8 Plain Text
Duration                                 : 54 min 15 s
Bit rate                                 : 33 b/s
Frame rate                               : 0.139 FPS
Count of elements                        : 453
Stream size                              : 13.2 KiB (0%)
Language                                 : Turkish
Default                                  : No
Forced                                   : No

Text #41
ID                                       : 43
Format                                   : UTF-8
Codec ID                                 : S_TEXT/UTF8
Codec ID/Info                            : UTF-8 Plain Text
Duration                                 : 54 min 15 s
Bit rate                                 : 53 b/s
Frame rate                               : 0.143 FPS
Count of elements                        : 466
Stream size                              : 21.2 KiB (0%)
Language                                 : Ukrainian
Default                                  : No
Forced                                   : No

Text #42
ID                                       : 44
Format                                   : UTF-8
Codec ID                                 : S_TEXT/UTF8
Codec ID/Info                            : UTF-8 Plain Text
Duration                                 : 54 min 15 s
Bit rate                                 : 45 b/s
Frame rate                               : 0.143 FPS
Count of elements                        : 466
Stream size                              : 18.0 KiB (0%)
Language                                 : Vietnamese
Default                                  : No
Forced                                   : No

Text #43
ID                                       : 45
Format                                   : UTF-8
Codec ID                                 : S_TEXT/UTF8
Codec ID/Info                            : UTF-8 Plain Text
Duration                                 : 54 min 15 s
Bit rate                                 : 28 b/s
Frame rate                               : 0.143 FPS
Count of elements                        : 467
Stream size                              : 11.4 KiB (0%)
Title                                    : Chinese (Traditional)
Language                                 : Chinese (Traditional)
Default                                  : No
Forced                                   : No



Download
File Container: MKV
Video/Audio Codec: H264 (HIGH) EAC3
Video Resolution: 1920x1080

1 Response to "[RR/NF] Constellation S01E02 Live And Let Die 1080p ATVP WEB-DL DDP5 1 H 264-NTb (4.1GB)"
02/23/24
00:52:34
ReadyPlayerOne

Thank You

Please Login to post a comment.
If you don't have any account, please Register.
  • Subscribe my Feeds
  • Facebook
Encoding Queue:  x264  x265

Latest Episodes

Popular Movies and TV Shows

  • Shogun
  • Monkey Man
  • NCIS
  • Arthur the King
  • NCIS: Hawai'i
  • Downtown Owl
  • The Neighborhood
  • Bob Hearts Abishola
  • All American
  • One Life
  • Which Brings Me to You
  • The Cost
  • Tracker
  • Fallout
  • The Simpsons
  • Time Addicts
  • Kung Fu Panda 4
  • Rebel Moon - Part Two: The Scargiver
  • The Sympathizer
  • CSI: Vegas
  • The Equalizer
  • Fern Brady: Autistic Bikini Queen
  • Tigers on the Rise
  • Tiger
  • Beacon 23

Recent Comments

  • 89M:

    NitroFlare's link is missing !!!
    Clicknupload's link is missing !!!

  • V4ND4L: May we get a ClicknUpload link for this, please. It's conspicuously missing for the team/size.
  • Bud:

    The file's half the size it should be & corrupted. Useless. Avoid.

  • mentalityx:

    Rad dude

  • mentalityx:

    Rad mate

  • waanaabe:

    I tried this file with 3 different players which all said they couldn't read the codec

  • Rosa: hi i have a question,this file size is 198mb,but on clickenupload is only 118mb is it right? what ha...
  • mike1204:

    Any reason why this episode is omitted from 'click'n'upload??

  • kellym2: I appreciate all the hard work the team does BUT there is no point in my paying for a Premium subscr...
  • Cinque_Persson: Why not skip the old news and hearsay and be constructive: what's the best alternatives for Win, Mac...
  • fallensammer:

    the file on click upload is 119mg onnly and is corrupted

  • ronkanon:

    Could you please provide a ClicknUpload link?

  • ronkanon:

    Could you please provide a ClicknUpload link?

  • waanaabe: Could you Kindly Upload the SOUTH PARK seasons to CU as well? Would be really appreciated
  • gusmac67:

    Clickupload link is corrupt. File bad at 38 min

  • timt:

    Narrated Movie!

  • Richardexamp: I recently stumbled upon https://asiancasinos.org/ and I obligated to symbolize, it has with dispatc...

Archives