Sign Up   |   Sign In  
Rebel Moon - Part Two: The ScargiverLate Night with the DevilBlood for DustThe Spiderwick ChroniclesSo Help Me ToddFalloutSugarYoung SheldonElsbethAsphalt CityProblemistaRiver WildManhuntLaw & Order: Special Victims UnitA Gentleman in MoscowGhostbusters: Frozen EmpireThe Three Musketeers - Part II: MiladyThe ReaderStar Trek: DiscoveryAmerican Horror StoryFamily GuyYou Were Never Really HereGodzilla x Kong: The New EmpireDune: Part TwoThe Good Doctor

Announcements

02/29

2024

1

Comments

Constellation S01E04 The Left Hand of God 1080p ATVP WEB-DL DDP5 1 Atmos H 264-FLUX
[RR/NF]
Size: 4GB mkv H264 (HIGH) / EAC3  HD  1920x1080

Constellation
File Information
[img]http://lookpic.com/cdn/i2/t/0228202418500090-1.jpg[/img]
[img]http://lookpic.com/cdn/i2/t/0228202418500090-2.jpg[/img]
[img]http://lookpic.com/cdn/i2/t/0228202418500090-3.jpg[/img]

General
Unique ID                                : 97970213482326891537809167894233703764 (0x49B46074AD860C7748086294B1176554)
Complete name                            : Constellation.S01E04.The.Left.Hand.of.God.1080p.ATVP.WEB-DL.DDP5.1.Atmos.H.264-FLUX.mkv
Format                                   : Matroska
Format version                           : Version 4
File size                                : 3.96 GiB
Duration                                 : 52 min 44 s
Overall bit rate                         : 10.8 Mb/s
Frame rate                               : 23.976 FPS
Writing application                      : mkvmerge v82.0 ('I'm The President') 64-bit
Writing library                          : libebml v1.4.5 + libmatroska v1.7.1

Video
ID                                       : 1
Format                                   : AVC
Format/Info                              : Advanced Video Codec
Format profile                           : High@L4
Format settings                          : CABAC / 4 Ref Frames
Format settings, CABAC                   : Yes
Format settings, Reference frames        : 4 frames
Codec ID                                 : V_MPEG4/ISO/AVC
Duration                                 : 52 min 44 s
Bit rate                                 : 9 985 kb/s
Width                                    : 1 920 pixels
Height                                   : 1 080 pixels
Display aspect ratio                     : 16:9
Frame rate mode                          : Constant
Frame rate                               : 23.976 (24000/1001) FPS
Color space                              : YUV
Chroma subsampling                       : 4:2:0
Bit depth                                : 8 bits
Scan type                                : Progressive
Bits/(Pixel*Frame)                       : 0.201
Stream size                              : 3.68 GiB (93%)
Language                                 : English
Default                                  : Yes
Forced                                   : No
Color range                              : Limited
Color primaries                          : BT.709
Transfer characteristics                 : BT.709
Matrix coefficients                      : BT.709

Audio
ID                                       : 2
Format                                   : E-AC-3 JOC
Format/Info                              : Enhanced AC-3 with Joint Object Coding
Commercial name                          : Dolby Digital Plus with Dolby Atmos
Codec ID                                 : A_EAC3
Duration                                 : 52 min 44 s
Bit rate mode                            : Constant
Bit rate                                 : 768 kb/s
Channel(s)                               : 6 channels
Channel layout                           : L R C LFE Ls Rs
Sampling rate                            : 48.0 kHz
Frame rate                               : 31.250 FPS (1536 SPF)
Compression mode                         : Lossy
Stream size                              : 290 MiB (7%)
Language                                 : English
Service kind                             : Complete Main
Default                                  : Yes
Forced                                   : No
Complexity index                         : 16
Number of dynamic objects                : 15
Bed channel count                        : 1 channel
Bed channel configuration                : LFE

Text #1
ID                                       : 3
Format                                   : UTF-8
Codec ID                                 : S_TEXT/UTF8
Codec ID/Info                            : UTF-8 Plain Text
Duration                                 : 33 min 52 s
Bit rate                                 : 0 b/s
Frame rate                               : 0.004 FPS
Count of elements                        : 8
Stream size                              : 223 Bytes (0%)
Title                                    : Forced
Language                                 : English
Default                                  : Yes
Forced                                   : Yes

Text #2
ID                                       : 4
Format                                   : UTF-8
Codec ID                                 : S_TEXT/UTF8
Codec ID/Info                            : UTF-8 Plain Text
Duration                                 : 50 min 55 s
Bit rate                                 : 50 b/s
Frame rate                               : 0.186 FPS
Count of elements                        : 567
Stream size                              : 18.9 KiB (0%)
Language                                 : English
Default                                  : No
Forced                                   : No

Text #3
ID                                       : 5
Format                                   : UTF-8
Codec ID                                 : S_TEXT/UTF8
Codec ID/Info                            : UTF-8 Plain Text
Duration                                 : 51 min 40 s
Bit rate                                 : 59 b/s
Frame rate                               : 0.217 FPS
Count of elements                        : 672
Stream size                              : 22.5 KiB (0%)
Title                                    : SDH
Language                                 : English
Default                                  : No
Forced                                   : No

Text #4
ID                                       : 6
Format                                   : UTF-8
Codec ID                                 : S_TEXT/UTF8
Codec ID/Info                            : UTF-8 Plain Text
Duration                                 : 52 min 17 s
Bit rate                                 : 78 b/s
Frame rate                               : 0.191 FPS
Count of elements                        : 600
Stream size                              : 30.0 KiB (0%)
Language                                 : Arabic
Default                                  : No
Forced                                   : No

Text #5
ID                                       : 7
Format                                   : UTF-8
Codec ID                                 : S_TEXT/UTF8
Codec ID/Info                            : UTF-8 Plain Text
Duration                                 : 52 min 17 s
Bit rate                                 : 69 b/s
Frame rate                               : 0.145 FPS
Count of elements                        : 456
Stream size                              : 26.6 KiB (0%)
Language                                 : Bulgarian
Default                                  : No
Forced                                   : No

Text #6
ID                                       : 8
Format                                   : UTF-8
Codec ID                                 : S_TEXT/UTF8
Codec ID/Info                            : UTF-8 Plain Text
Duration                                 : 52 min 17 s
Bit rate                                 : 46 b/s
Frame rate                               : 0.192 FPS
Count of elements                        : 602
Stream size                              : 17.9 KiB (0%)
Title                                    : Simplified
Language                                 : Chinese (Simplified)
Default                                  : No
Forced                                   : No

Text #7
ID                                       : 9
Format                                   : UTF-8
Codec ID                                 : S_TEXT/UTF8
Codec ID/Info                            : UTF-8 Plain Text
Duration                                 : 52 min 17 s
Bit rate                                 : 44 b/s
Frame rate                               : 0.192 FPS
Count of elements                        : 603
Stream size                              : 17.1 KiB (0%)
Title                                    : Traditional
Language                                 : Chinese (Traditional)
Default                                  : No
Forced                                   : No

Text #8
ID                                       : 10
Format                                   : UTF-8
Codec ID                                 : S_TEXT/UTF8
Codec ID/Info                            : UTF-8 Plain Text
Duration                                 : 52 min 17 s
Bit rate                                 : 46 b/s
Frame rate                               : 0.183 FPS
Count of elements                        : 574
Stream size                              : 17.7 KiB (0%)
Language                                 : Czech
Default                                  : No
Forced                                   : No

Text #9
ID                                       : 11
Format                                   : UTF-8
Codec ID                                 : S_TEXT/UTF8
Codec ID/Info                            : UTF-8 Plain Text
Duration                                 : 52 min 17 s
Bit rate                                 : 49 b/s
Frame rate                               : 0.169 FPS
Count of elements                        : 529
Stream size                              : 18.9 KiB (0%)
Language                                 : Danish
Default                                  : No
Forced                                   : No

Text #10
ID                                       : 12
Format                                   : UTF-8
Codec ID                                 : S_TEXT/UTF8
Codec ID/Info                            : UTF-8 Plain Text
Duration                                 : 52 min 15 s
Bit rate                                 : 51 b/s
Frame rate                               : 0.174 FPS
Count of elements                        : 546
Stream size                              : 19.8 KiB (0%)
Language                                 : German
Default                                  : No
Forced                                   : No

Text #11
ID                                       : 13
Format                                   : UTF-8
Codec ID                                 : S_TEXT/UTF8
Codec ID/Info                            : UTF-8 Plain Text
Duration                                 : 52 min 17 s
Bit rate                                 : 84 b/s
Frame rate                               : 0.184 FPS
Count of elements                        : 576
Stream size                              : 32.3 KiB (0%)
Language                                 : Greek
Default                                  : No
Forced                                   : No

Text #12
ID                                       : 14
Format                                   : UTF-8
Codec ID                                 : S_TEXT/UTF8
Codec ID/Info                            : UTF-8 Plain Text
Duration                                 : 52 min 17 s
Bit rate                                 : 50 b/s
Frame rate                               : 0.190 FPS
Count of elements                        : 595
Stream size                              : 19.3 KiB (0%)
Title                                    : Latin American
Language                                 : Spanish (Latin America)
Default                                  : No
Forced                                   : No

Text #13
ID                                       : 15
Format                                   : UTF-8
Codec ID                                 : S_TEXT/UTF8
Codec ID/Info                            : UTF-8 Plain Text
Duration                                 : 52 min 19 s
Bit rate                                 : 50 b/s
Frame rate                               : 0.190 FPS
Count of elements                        : 598
Stream size                              : 19.4 KiB (0%)
Language                                 : Spanish (ES)
Default                                  : No
Forced                                   : No

Text #14
ID                                       : 16
Format                                   : UTF-8
Codec ID                                 : S_TEXT/UTF8
Codec ID/Info                            : UTF-8 Plain Text
Duration                                 : 52 min 17 s
Bit rate                                 : 47 b/s
Frame rate                               : 0.185 FPS
Count of elements                        : 582
Stream size                              : 18.1 KiB (0%)
Language                                 : Estonian
Default                                  : No
Forced                                   : No

Text #15
ID                                       : 17
Format                                   : UTF-8
Codec ID                                 : S_TEXT/UTF8
Codec ID/Info                            : UTF-8 Plain Text
Duration                                 : 52 min 17 s
Bit rate                                 : 47 b/s
Frame rate                               : 0.178 FPS
Count of elements                        : 560
Stream size                              : 18.2 KiB (0%)
Language                                 : Finnish
Default                                  : No
Forced                                   : No

Text #16
ID                                       : 18
Format                                   : UTF-8
Codec ID                                 : S_TEXT/UTF8
Codec ID/Info                            : UTF-8 Plain Text
Duration                                 : 52 min 15 s
Bit rate                                 : 45 b/s
Frame rate                               : 0.194 FPS
Count of elements                        : 608
Stream size                              : 17.4 KiB (0%)
Title                                    : Canadian
Language                                 : French (CA)
Default                                  : No
Forced                                   : No

Text #17
ID                                       : 19
Format                                   : UTF-8
Codec ID                                 : S_TEXT/UTF8
Codec ID/Info                            : UTF-8 Plain Text
Duration                                 : 52 min 15 s
Bit rate                                 : 45 b/s
Frame rate                               : 0.194 FPS
Count of elements                        : 608
Stream size                              : 17.4 KiB (0%)
Language                                 : French (FR)
Default                                  : No
Forced                                   : No

Text #18
ID                                       : 20
Format                                   : UTF-8
Codec ID                                 : S_TEXT/UTF8
Codec ID/Info                            : UTF-8 Plain Text
Duration                                 : 52 min 17 s
Bit rate                                 : 72 b/s
Frame rate                               : 0.192 FPS
Count of elements                        : 602
Stream size                              : 27.9 KiB (0%)
Language                                 : Hebrew
Default                                  : No
Forced                                   : No

Text #19
ID                                       : 21
Format                                   : UTF-8
Codec ID                                 : S_TEXT/UTF8
Codec ID/Info                            : UTF-8 Plain Text
Duration                                 : 52 min 17 s
Bit rate                                 : 133 b/s
Frame rate                               : 0.192 FPS
Count of elements                        : 603
Stream size                              : 51.0 KiB (0%)
Language                                 : Hindi
Default                                  : No
Forced                                   : No

Text #20
ID                                       : 22
Format                                   : UTF-8
Codec ID                                 : S_TEXT/UTF8
Codec ID/Info                            : UTF-8 Plain Text
Duration                                 : 52 min 17 s
Bit rate                                 : 52 b/s
Frame rate                               : 0.189 FPS
Count of elements                        : 593
Stream size                              : 20.0 KiB (0%)
Language                                 : Hungarian
Default                                  : No
Forced                                   : No

Text #21
ID                                       : 23
Format                                   : UTF-8
Codec ID                                 : S_TEXT/UTF8
Codec ID/Info                            : UTF-8 Plain Text
Duration                                 : 52 min 17 s
Bit rate                                 : 49 b/s
Frame rate                               : 0.189 FPS
Count of elements                        : 593
Stream size                              : 18.9 KiB (0%)
Language                                 : Indonesian
Default                                  : No
Forced                                   : No

Text #22
ID                                       : 24
Format                                   : UTF-8
Codec ID                                 : S_TEXT/UTF8
Codec ID/Info                            : UTF-8 Plain Text
Duration                                 : 52 min 19 s
Bit rate                                 : 50 b/s
Frame rate                               : 0.186 FPS
Count of elements                        : 584
Stream size                              : 19.3 KiB (0%)
Language                                 : Italian
Default                                  : No
Forced                                   : No

Text #23
ID                                       : 25
Format                                   : UTF-8
Codec ID                                 : S_TEXT/UTF8
Codec ID/Info                            : UTF-8 Plain Text
Duration                                 : 52 min 18 s
Bit rate                                 : 42 b/s
Frame rate                               : 0.182 FPS
Count of elements                        : 571
Stream size                              : 16.3 KiB (0%)
Language                                 : Japanese
Default                                  : No
Forced                                   : No

Text #24
ID                                       : 26
Format                                   : UTF-8
Codec ID                                 : S_TEXT/UTF8
Codec ID/Info                            : UTF-8 Plain Text
Duration                                 : 52 min 17 s
Bit rate                                 : 55 b/s
Frame rate                               : 0.192 FPS
Count of elements                        : 602
Stream size                              : 21.4 KiB (0%)
Language                                 : Korean
Default                                  : No
Forced                                   : No

Text #25
ID                                       : 27
Format                                   : UTF-8
Codec ID                                 : S_TEXT/UTF8
Codec ID/Info                            : UTF-8 Plain Text
Duration                                 : 52 min 17 s
Bit rate                                 : 50 b/s
Frame rate                               : 0.191 FPS
Count of elements                        : 600
Stream size                              : 19.3 KiB (0%)
Language                                 : Lithuanian
Default                                  : No
Forced                                   : No

Text #26
ID                                       : 28
Format                                   : UTF-8
Codec ID                                 : S_TEXT/UTF8
Codec ID/Info                            : UTF-8 Plain Text
Duration                                 : 52 min 17 s
Bit rate                                 : 51 b/s
Frame rate                               : 0.191 FPS
Count of elements                        : 598
Stream size                              : 19.8 KiB (0%)
Language                                 : Latvian
Default                                  : No
Forced                                   : No

Text #27
ID                                       : 29
Format                                   : UTF-8
Codec ID                                 : S_TEXT/UTF8
Codec ID/Info                            : UTF-8 Plain Text
Duration                                 : 52 min 17 s
Bit rate                                 : 48 b/s
Frame rate                               : 0.189 FPS
Count of elements                        : 592
Stream size                              : 18.6 KiB (0%)
Language                                 : Malay
Default                                  : No
Forced                                   : No

Text #28
ID                                       : 30
Format                                   : UTF-8
Codec ID                                 : S_TEXT/UTF8
Codec ID/Info                            : UTF-8 Plain Text
Duration                                 : 52 min 17 s
Bit rate                                 : 44 b/s
Frame rate                               : 0.140 FPS
Count of elements                        : 438
Stream size                              : 17.1 KiB (0%)
Language                                 : Dutch
Default                                  : No
Forced                                   : No

Text #29
ID                                       : 31
Format                                   : UTF-8
Codec ID                                 : S_TEXT/UTF8
Codec ID/Info                            : UTF-8 Plain Text
Duration                                 : 52 min 17 s
Bit rate                                 : 46 b/s
Frame rate                               : 0.166 FPS
Count of elements                        : 520
Stream size                              : 18.0 KiB (0%)
Language                                 : Norwegian
Default                                  : No
Forced                                   : No

Text #30
ID                                       : 32
Format                                   : UTF-8
Codec ID                                 : S_TEXT/UTF8
Codec ID/Info                            : UTF-8 Plain Text
Duration                                 : 52 min 17 s
Bit rate                                 : 46 b/s
Frame rate                               : 0.181 FPS
Count of elements                        : 569
Stream size                              : 17.7 KiB (0%)
Language                                 : Polish
Default                                  : No
Forced                                   : No

Text #31
ID                                       : 33
Format                                   : UTF-8
Codec ID                                 : S_TEXT/UTF8
Codec ID/Info                            : UTF-8 Plain Text
Duration                                 : 52 min 17 s
Bit rate                                 : 48 b/s
Frame rate                               : 0.188 FPS
Count of elements                        : 589
Stream size                              : 18.7 KiB (0%)
Language                                 : Portuguese
Default                                  : No
Forced                                   : No

Text #32
ID                                       : 34
Format                                   : UTF-8
Codec ID                                 : S_TEXT/UTF8
Codec ID/Info                            : UTF-8 Plain Text
Duration                                 : 52 min 17 s
Bit rate                                 : 46 b/s
Frame rate                               : 0.186 FPS
Count of elements                        : 583
Stream size                              : 17.7 KiB (0%)
Title                                    : Brazilian
Language                                 : Portuguese (BR)
Default                                  : No
Forced                                   : No

Text #33
ID                                       : 35
Format                                   : UTF-8
Codec ID                                 : S_TEXT/UTF8
Codec ID/Info                            : UTF-8 Plain Text
Duration                                 : 52 min 17 s
Bit rate                                 : 79 b/s
Frame rate                               : 0.193 FPS
Count of elements                        : 605
Stream size                              : 30.6 KiB (0%)
Language                                 : Russian
Default                                  : No
Forced                                   : No

Text #34
ID                                       : 36
Format                                   : UTF-8
Codec ID                                 : S_TEXT/UTF8
Codec ID/Info                            : UTF-8 Plain Text
Duration                                 : 52 min 17 s
Bit rate                                 : 46 b/s
Frame rate                               : 0.188 FPS
Count of elements                        : 589
Stream size                              : 17.8 KiB (0%)
Language                                 : Slovak
Default                                  : No
Forced                                   : No

Text #35
ID                                       : 37
Format                                   : UTF-8
Codec ID                                 : S_TEXT/UTF8
Codec ID/Info                            : UTF-8 Plain Text
Duration                                 : 52 min 17 s
Bit rate                                 : 42 b/s
Frame rate                               : 0.169 FPS
Count of elements                        : 530
Stream size                              : 16.2 KiB (0%)
Language                                 : Slovenian
Default                                  : No
Forced                                   : No

Text #36
ID                                       : 38
Format                                   : UTF-8
Codec ID                                 : S_TEXT/UTF8
Codec ID/Info                            : UTF-8 Plain Text
Duration                                 : 52 min 17 s
Bit rate                                 : 50 b/s
Frame rate                               : 0.183 FPS
Count of elements                        : 574
Stream size                              : 19.5 KiB (0%)
Language                                 : Swedish
Default                                  : No
Forced                                   : No

Text #37
ID                                       : 39
Format                                   : UTF-8
Codec ID                                 : S_TEXT/UTF8
Codec ID/Info                            : UTF-8 Plain Text
Duration                                 : 52 min 17 s
Bit rate                                 : 149 b/s
Frame rate                               : 0.192 FPS
Count of elements                        : 601
Stream size                              : 57.2 KiB (0%)
Language                                 : Tamil
Default                                  : No
Forced                                   : No

Text #38
ID                                       : 40
Format                                   : UTF-8
Codec ID                                 : S_TEXT/UTF8
Codec ID/Info                            : UTF-8 Plain Text
Duration                                 : 52 min 17 s
Bit rate                                 : 145 b/s
Frame rate                               : 0.192 FPS
Count of elements                        : 602
Stream size                              : 55.8 KiB (0%)
Language                                 : Telugu
Default                                  : No
Forced                                   : No

Text #39
ID                                       : 41
Format                                   : UTF-8
Codec ID                                 : S_TEXT/UTF8
Codec ID/Info                            : UTF-8 Plain Text
Duration                                 : 52 min 17 s
Bit rate                                 : 120 b/s
Frame rate                               : 0.192 FPS
Count of elements                        : 601
Stream size                              : 46.3 KiB (0%)
Language                                 : Thai
Default                                  : No
Forced                                   : No

Text #40
ID                                       : 42
Format                                   : UTF-8
Codec ID                                 : S_TEXT/UTF8
Codec ID/Info                            : UTF-8 Plain Text
Duration                                 : 52 min 17 s
Bit rate                                 : 48 b/s
Frame rate                               : 0.184 FPS
Count of elements                        : 576
Stream size                              : 18.6 KiB (0%)
Language                                 : Turkish
Default                                  : No
Forced                                   : No

Text #41
ID                                       : 43
Format                                   : UTF-8
Codec ID                                 : S_TEXT/UTF8
Codec ID/Info                            : UTF-8 Plain Text
Duration                                 : 52 min 17 s
Bit rate                                 : 78 b/s
Frame rate                               : 0.192 FPS
Count of elements                        : 603
Stream size                              : 30.1 KiB (0%)
Language                                 : Ukrainian
Default                                  : No
Forced                                   : No

Text #42
ID                                       : 44
Format                                   : UTF-8
Codec ID                                 : S_TEXT/UTF8
Codec ID/Info                            : UTF-8 Plain Text
Duration                                 : 52 min 17 s
Bit rate                                 : 65 b/s
Frame rate                               : 0.190 FPS
Count of elements                        : 595
Stream size                              : 25.2 KiB (0%)
Language                                 : Vietnamese
Default                                  : No
Forced                                   : No

Text #43
ID                                       : 45
Format                                   : UTF-8
Codec ID                                 : S_TEXT/UTF8
Codec ID/Info                            : UTF-8 Plain Text
Duration                                 : 52 min 17 s
Bit rate                                 : 41 b/s
Frame rate                               : 0.192 FPS
Count of elements                        : 603
Stream size                              : 15.8 KiB (0%)
Title                                    : Traditional
Language                                 : Cantonese (Hant)
Default                                  : No
Forced                                   : No

Menu
00:00:00.000                             : en:Studio Logo
00:00:08.963                             : en:Recap
00:01:15.280                             : en:Scene 01
00:03:11.696                             : en:Intro
00:03:48.196                             : en:Scene 02
00:51:36.500                             : en:Credits



Download
File Container: MKV
Video/Audio Codec: H264 (HIGH) EAC3
Video Resolution: 1920x1080

1 Response to "[RR/NF] Constellation S01E04 The Left Hand of God 1080p ATVP WEB-DL DDP5 1 Atmos H 264-FLUX (4GB)"
02/29/24
05:20:15
ReadyPlayerOne

Thank you!

Please Login to post a comment.
If you don't have any account, please Register.
  • Subscribe my Feeds
  • Facebook
Encoding Queue:  x264  x265

Latest Episodes

Popular Movies and TV Shows

  • Rebel Moon - Part Two: The Scargiver
  • Late Night with the Devil
  • Blood for Dust
  • The Spiderwick Chronicles
  • So Help Me Todd
  • Fallout
  • Sugar
  • Young Sheldon
  • Elsbeth
  • Asphalt City
  • Problemista
  • River Wild
  • Manhunt
  • Law & Order: Special Victims Unit
  • A Gentleman in Moscow
  • Ghostbusters: Frozen Empire
  • The Three Musketeers - Part II: Milady
  • The Reader
  • Star Trek: Discovery
  • American Horror Story
  • Family Guy
  • You Were Never Really Here
  • Godzilla x Kong: The New Empire
  • Dune: Part Two
  • The Good Doctor

Recent Comments

  • 23d1:

    ClicknUpload link is missing

  • yopo:

    NitroFlare's link is missing !!!

  • yopo:

    NitroFlare's link is missing !!!

  • yopo:

    NitroFlare's link is missing !!!
    Clicknupload's link is missing !!!

  • yopo:

    NitroFlare's link is missing !!!

  • dragonnightfire: I have tried contacting Rapid Rar to find out what is going on with the server maintainance. I am no...
  • dragonnightfire:

    RR links dead on 5 eps

  • Draveren: hi. can we solve this "server under maintenance" stuff, already? if back in the day i'd ke...
  • Majnon: The links are dead. Please re-upload
  • timt:

    Anyone have the movie "Shoot" (1976) to post?

  • Nightshade: Hey, it appears at least the RMTeam separate episodes and ION's packs for the first two seasons of t...
  • Bigfishguy:

    There's no free option to download this video. Can someone please upload it to clicknupload?

  • timt:

    Junk

  • timt:

    CAM Audio

  • timt:

    Hard Coded SUMS! Russian, I Think.

  • ubirattan:

    Mandem um Fikper, por favor.

  • kellym2: No answer yet for my query - why all the episodes "server under maintenance" on some episo...
  • Majnon:

    Rapidrar links are dead :(

  • Rake:

    Loads of "Server is under maintenance" with RR theese days...

Archives