Sign Up   |   Sign In  
The Great NorthDune: Part TwoBeacon 23Trinket BoxThe ChannelHazbin HotelShogunThis TownGuardians of the Galaxy Vol. 3The Bellboy and the PlaygirlsResident AlienDangerous MovesParishSaturday Night LiveNinja KamuiFantastic Four: Rise of the Silver SurferThe Taste of ThingsLegend of the Lost LocketFalloutImmoral WomenGrey's AnatomyS.W.A.T.WillowScrambledFBI

Announcements

02/21

2024

1

Comments

Criminal Record S01E08 Carla 1080p ATVP WEB-DL DDP5 1 Atmos H 264-CMRG
[RR/NF]
Size: 3.6GB mkv H264 (HIGH) / EAC3  HD  1920x960

Criminal Record
File Information
[img]http://lookpic.com/cdn/i2/t/0221202410383107-1.jpg[/img]
[img]http://lookpic.com/cdn/i2/t/0221202410383107-2.jpg[/img]
[img]http://lookpic.com/cdn/i2/t/0221202410383107-3.jpg[/img]

General
Unique ID                                : 330331067875165621536049262212173668909 (0xF8837313A04342C5A56E7F0E91F6222D)
Complete name                            : Criminal.Record.S01E08.Carla.1080p.ATVP.WEB-DL.DDP5.1.Atmos.H.264-CMRG.mkv
Format                                   : Matroska
Format version                           : Version 4
File size                                : 3.60 GiB
Duration                                 : 47 min 30 s
Overall bit rate                         : 10.9 Mb/s
Frame rate                               : 23.976 FPS
Writing application                      : mkvmerge v79.0 ('Funeral Pyres') 64-bit
Writing library                          : libebml v1.4.4 + libmatroska v1.7.1

Video
ID                                       : 1
Format                                   : AVC
Format/Info                              : Advanced Video Codec
Format profile                           : High@L4
Format settings                          : CABAC / 4 Ref Frames
Format settings, CABAC                   : Yes
Format settings, Reference frames        : 4 frames
Codec ID                                 : V_MPEG4/ISO/AVC
Duration                                 : 47 min 30 s
Bit rate                                 : 10.1 Mb/s
Width                                    : 1 920 pixels
Height                                   : 960 pixels
Display aspect ratio                     : 2.000
Frame rate mode                          : Constant
Frame rate                               : 23.976 (24000/1001) FPS
Color space                              : YUV
Chroma subsampling                       : 4:2:0
Bit depth                                : 8 bits
Scan type                                : Progressive
Bits/(Pixel*Frame)                       : 0.228
Stream size                              : 3.35 GiB (93%)
Language                                 : English
Default                                  : Yes
Forced                                   : No
Color range                              : Limited
Color primaries                          : BT.709
Transfer characteristics                 : BT.709
Matrix coefficients                      : BT.709

Audio
ID                                       : 2
Format                                   : E-AC-3 JOC
Format/Info                              : Enhanced AC-3 with Joint Object Coding
Commercial name                          : Dolby Digital Plus with Dolby Atmos
Codec ID                                 : A_EAC3
Duration                                 : 47 min 30 s
Bit rate mode                            : Constant
Bit rate                                 : 768 kb/s
Channel(s)                               : 6 channels
Channel layout                           : L R C LFE Ls Rs
Sampling rate                            : 48.0 kHz
Frame rate                               : 31.250 FPS (1536 SPF)
Compression mode                         : Lossy
Stream size                              : 261 MiB (7%)
Language                                 : English
Service kind                             : Complete Main
Default                                  : Yes
Forced                                   : No
Complexity index                         : 16
Number of dynamic objects                : 15
Bed channel count                        : 1 channel
Bed channel configuration                : LFE

Text #1
ID                                       : 3
Format                                   : UTF-8
Codec ID                                 : S_TEXT/UTF8
Codec ID/Info                            : UTF-8 Plain Text
Duration                                 : 45 min 33 s
Bit rate                                 : 66 b/s
Frame rate                               : 0.238 FPS
Count of elements                        : 651
Stream size                              : 22.2 KiB (0%)
Language                                 : English
Default                                  : No
Forced                                   : No

Text #2
ID                                       : 4
Format                                   : UTF-8
Codec ID                                 : S_TEXT/UTF8
Codec ID/Info                            : UTF-8 Plain Text
Duration                                 : 45 min 36 s
Bit rate                                 : 76 b/s
Frame rate                               : 0.259 FPS
Count of elements                        : 709
Stream size                              : 25.4 KiB (0%)
Title                                    : SDH
Language                                 : English
Default                                  : No
Forced                                   : No

Text #3
ID                                       : 5
Format                                   : UTF-8
Codec ID                                 : S_TEXT/UTF8
Codec ID/Info                            : UTF-8 Plain Text
Duration                                 : 47 min 19 s
Bit rate                                 : 103 b/s
Frame rate                               : 0.232 FPS
Count of elements                        : 660
Stream size                              : 35.8 KiB (0%)
Language                                 : Arabic
Default                                  : No
Forced                                   : No

Text #4
ID                                       : 6
Format                                   : UTF-8
Codec ID                                 : S_TEXT/UTF8
Codec ID/Info                            : UTF-8 Plain Text
Duration                                 : 47 min 19 s
Bit rate                                 : 82 b/s
Frame rate                               : 0.181 FPS
Count of elements                        : 515
Stream size                              : 28.5 KiB (0%)
Language                                 : Bulgarian
Default                                  : No
Forced                                   : No

Text #5
ID                                       : 7
Format                                   : UTF-8
Codec ID                                 : S_TEXT/UTF8
Codec ID/Info                            : UTF-8 Plain Text
Duration                                 : 47 min 19 s
Bit rate                                 : 60 b/s
Frame rate                               : 0.235 FPS
Count of elements                        : 666
Stream size                              : 20.8 KiB (0%)
Title                                    : Simplified
Language                                 : Chinese (Simplified)
Default                                  : No
Forced                                   : No

Text #6
ID                                       : 8
Format                                   : UTF-8
Codec ID                                 : S_TEXT/UTF8
Codec ID/Info                            : UTF-8 Plain Text
Duration                                 : 47 min 19 s
Bit rate                                 : 58 b/s
Frame rate                               : 0.235 FPS
Count of elements                        : 667
Stream size                              : 20.3 KiB (0%)
Title                                    : Traditional
Language                                 : Chinese (Traditional)
Default                                  : No
Forced                                   : No

Text #7
ID                                       : 9
Format                                   : UTF-8
Codec ID                                 : S_TEXT/UTF8
Codec ID/Info                            : UTF-8 Plain Text
Duration                                 : 47 min 19 s
Bit rate                                 : 54 b/s
Frame rate                               : 0.215 FPS
Count of elements                        : 611
Stream size                              : 18.9 KiB (0%)
Language                                 : Czech
Default                                  : No
Forced                                   : No

Text #8
ID                                       : 10
Format                                   : UTF-8
Codec ID                                 : S_TEXT/UTF8
Codec ID/Info                            : UTF-8 Plain Text
Duration                                 : 47 min 19 s
Bit rate                                 : 60 b/s
Frame rate                               : 0.212 FPS
Count of elements                        : 601
Stream size                              : 21.1 KiB (0%)
Language                                 : Danish
Default                                  : No
Forced                                   : No

Text #9
ID                                       : 11
Format                                   : UTF-8
Codec ID                                 : S_TEXT/UTF8
Codec ID/Info                            : UTF-8 Plain Text
Duration                                 : 47 min 22 s
Bit rate                                 : 71 b/s
Frame rate                               : 0.229 FPS
Count of elements                        : 652
Stream size                              : 24.7 KiB (0%)
Language                                 : German
Default                                  : No
Forced                                   : No

Text #10
ID                                       : 12
Format                                   : UTF-8
Codec ID                                 : S_TEXT/UTF8
Codec ID/Info                            : UTF-8 Plain Text
Duration                                 : 47 min 19 s
Bit rate                                 : 101 b/s
Frame rate                               : 0.226 FPS
Count of elements                        : 643
Stream size                              : 35.2 KiB (0%)
Language                                 : Greek
Default                                  : No
Forced                                   : No

Text #11
ID                                       : 13
Format                                   : UTF-8
Codec ID                                 : S_TEXT/UTF8
Codec ID/Info                            : UTF-8 Plain Text
Duration                                 : 47 min 19 s
Bit rate                                 : 62 b/s
Frame rate                               : 0.233 FPS
Count of elements                        : 662
Stream size                              : 21.7 KiB (0%)
Title                                    : Latin American
Language                                 : Spanish (Latin America)
Default                                  : No
Forced                                   : No

Text #12
ID                                       : 14
Format                                   : UTF-8
Codec ID                                 : S_TEXT/UTF8
Codec ID/Info                            : UTF-8 Plain Text
Duration                                 : 47 min 22 s
Bit rate                                 : 65 b/s
Frame rate                               : 0.236 FPS
Count of elements                        : 671
Stream size                              : 22.9 KiB (0%)
Language                                 : Spanish (ES)
Default                                  : No
Forced                                   : No

Text #13
ID                                       : 15
Format                                   : UTF-8
Codec ID                                 : S_TEXT/UTF8
Codec ID/Info                            : UTF-8 Plain Text
Duration                                 : 47 min 19 s
Bit rate                                 : 60 b/s
Frame rate                               : 0.228 FPS
Count of elements                        : 648
Stream size                              : 20.9 KiB (0%)
Language                                 : Estonian
Default                                  : No
Forced                                   : No

Text #14
ID                                       : 16
Format                                   : UTF-8
Codec ID                                 : S_TEXT/UTF8
Codec ID/Info                            : UTF-8 Plain Text
Duration                                 : 47 min 19 s
Bit rate                                 : 52 b/s
Frame rate                               : 0.211 FPS
Count of elements                        : 598
Stream size                              : 18.3 KiB (0%)
Language                                 : Finnish
Default                                  : No
Forced                                   : No

Text #15
ID                                       : 17
Format                                   : UTF-8
Codec ID                                 : S_TEXT/UTF8
Codec ID/Info                            : UTF-8 Plain Text
Duration                                 : 47 min 17 s
Bit rate                                 : 54 b/s
Frame rate                               : 0.244 FPS
Count of elements                        : 693
Stream size                              : 19.0 KiB (0%)
Title                                    : Canadian
Language                                 : French (CA)
Default                                  : No
Forced                                   : No

Text #16
ID                                       : 18
Format                                   : UTF-8
Codec ID                                 : S_TEXT/UTF8
Codec ID/Info                            : UTF-8 Plain Text
Duration                                 : 47 min 17 s
Bit rate                                 : 54 b/s
Frame rate                               : 0.244 FPS
Count of elements                        : 692
Stream size                              : 18.9 KiB (0%)
Language                                 : French (FR)
Default                                  : No
Forced                                   : No

Text #17
ID                                       : 19
Format                                   : UTF-8
Codec ID                                 : S_TEXT/UTF8
Codec ID/Info                            : UTF-8 Plain Text
Duration                                 : 47 min 19 s
Bit rate                                 : 91 b/s
Frame rate                               : 0.235 FPS
Count of elements                        : 666
Stream size                              : 31.8 KiB (0%)
Language                                 : Hebrew
Default                                  : No
Forced                                   : No

Text #18
ID                                       : 20
Format                                   : UTF-8
Codec ID                                 : S_TEXT/UTF8
Codec ID/Info                            : UTF-8 Plain Text
Duration                                 : 47 min 19 s
Bit rate                                 : 168 b/s
Frame rate                               : 0.235 FPS
Count of elements                        : 667
Stream size                              : 58.4 KiB (0%)
Language                                 : Hindi
Default                                  : No
Forced                                   : No

Text #19
ID                                       : 21
Format                                   : UTF-8
Codec ID                                 : S_TEXT/UTF8
Codec ID/Info                            : UTF-8 Plain Text
Duration                                 : 47 min 19 s
Bit rate                                 : 61 b/s
Frame rate                               : 0.232 FPS
Count of elements                        : 660
Stream size                              : 21.3 KiB (0%)
Language                                 : Hungarian
Default                                  : No
Forced                                   : No

Text #20
ID                                       : 22
Format                                   : UTF-8
Codec ID                                 : S_TEXT/UTF8
Codec ID/Info                            : UTF-8 Plain Text
Duration                                 : 47 min 19 s
Bit rate                                 : 65 b/s
Frame rate                               : 0.235 FPS
Count of elements                        : 666
Stream size                              : 22.8 KiB (0%)
Language                                 : Indonesian
Default                                  : No
Forced                                   : No

Text #21
ID                                       : 23
Format                                   : UTF-8
Codec ID                                 : S_TEXT/UTF8
Codec ID/Info                            : UTF-8 Plain Text
Duration                                 : 47 min 22 s
Bit rate                                 : 62 b/s
Frame rate                               : 0.234 FPS
Count of elements                        : 665
Stream size                              : 21.8 KiB (0%)
Language                                 : Italian
Default                                  : No
Forced                                   : No

Text #22
ID                                       : 24
Format                                   : UTF-8
Codec ID                                 : S_TEXT/UTF8
Codec ID/Info                            : UTF-8 Plain Text
Duration                                 : 47 min 17 s
Bit rate                                 : 46 b/s
Frame rate                               : 0.228 FPS
Count of elements                        : 646
Stream size                              : 16.2 KiB (0%)
Language                                 : Japanese
Default                                  : No
Forced                                   : No

Text #23
ID                                       : 25
Format                                   : UTF-8
Codec ID                                 : S_TEXT/UTF8
Codec ID/Info                            : UTF-8 Plain Text
Duration                                 : 47 min 19 s
Bit rate                                 : 73 b/s
Frame rate                               : 0.235 FPS
Count of elements                        : 667
Stream size                              : 25.3 KiB (0%)
Language                                 : Korean
Default                                  : No
Forced                                   : No

Text #24
ID                                       : 26
Format                                   : UTF-8
Codec ID                                 : S_TEXT/UTF8
Codec ID/Info                            : UTF-8 Plain Text
Duration                                 : 47 min 18 s
Bit rate                                 : 60 b/s
Frame rate                               : 0.232 FPS
Count of elements                        : 659
Stream size                              : 20.9 KiB (0%)
Language                                 : Lithuanian
Default                                  : No
Forced                                   : No

Text #25
ID                                       : 27
Format                                   : UTF-8
Codec ID                                 : S_TEXT/UTF8
Codec ID/Info                            : UTF-8 Plain Text
Duration                                 : 47 min 19 s
Bit rate                                 : 64 b/s
Frame rate                               : 0.233 FPS
Count of elements                        : 661
Stream size                              : 22.2 KiB (0%)
Language                                 : Latvian
Default                                  : No
Forced                                   : No

Text #26
ID                                       : 28
Format                                   : UTF-8
Codec ID                                 : S_TEXT/UTF8
Codec ID/Info                            : UTF-8 Plain Text
Duration                                 : 47 min 19 s
Bit rate                                 : 60 b/s
Frame rate                               : 0.235 FPS
Count of elements                        : 666
Stream size                              : 21.0 KiB (0%)
Language                                 : Malay
Default                                  : No
Forced                                   : No

Text #27
ID                                       : 29
Format                                   : UTF-8
Codec ID                                 : S_TEXT/UTF8
Codec ID/Info                            : UTF-8 Plain Text
Duration                                 : 47 min 19 s
Bit rate                                 : 53 b/s
Frame rate                               : 0.174 FPS
Count of elements                        : 493
Stream size                              : 18.4 KiB (0%)
Language                                 : Dutch
Default                                  : No
Forced                                   : No

Text #28
ID                                       : 30
Format                                   : UTF-8
Codec ID                                 : S_TEXT/UTF8
Codec ID/Info                            : UTF-8 Plain Text
Duration                                 : 47 min 19 s
Bit rate                                 : 52 b/s
Frame rate                               : 0.184 FPS
Count of elements                        : 523
Stream size                              : 18.3 KiB (0%)
Language                                 : Norwegian
Default                                  : No
Forced                                   : No

Text #29
ID                                       : 31
Format                                   : UTF-8
Codec ID                                 : S_TEXT/UTF8
Codec ID/Info                            : UTF-8 Plain Text
Duration                                 : 47 min 19 s
Bit rate                                 : 54 b/s
Frame rate                               : 0.217 FPS
Count of elements                        : 616
Stream size                              : 18.9 KiB (0%)
Language                                 : Polish
Default                                  : No
Forced                                   : No

Text #30
ID                                       : 32
Format                                   : UTF-8
Codec ID                                 : S_TEXT/UTF8
Codec ID/Info                            : UTF-8 Plain Text
Duration                                 : 47 min 19 s
Bit rate                                 : 60 b/s
Frame rate                               : 0.232 FPS
Count of elements                        : 660
Stream size                              : 21.1 KiB (0%)
Language                                 : Portuguese
Default                                  : No
Forced                                   : No

Text #31
ID                                       : 33
Format                                   : UTF-8
Codec ID                                 : S_TEXT/UTF8
Codec ID/Info                            : UTF-8 Plain Text
Duration                                 : 47 min 19 s
Bit rate                                 : 59 b/s
Frame rate                               : 0.222 FPS
Count of elements                        : 631
Stream size                              : 20.5 KiB (0%)
Title                                    : Brazilian
Language                                 : Portuguese (BR)
Default                                  : No
Forced                                   : No

Text #32
ID                                       : 34
Format                                   : UTF-8
Codec ID                                 : S_TEXT/UTF8
Codec ID/Info                            : UTF-8 Plain Text
Duration                                 : 47 min 19 s
Bit rate                                 : 99 b/s
Frame rate                               : 0.235 FPS
Count of elements                        : 667
Stream size                              : 34.6 KiB (0%)
Language                                 : Russian
Default                                  : No
Forced                                   : No

Text #33
ID                                       : 35
Format                                   : UTF-8
Codec ID                                 : S_TEXT/UTF8
Codec ID/Info                            : UTF-8 Plain Text
Duration                                 : 47 min 19 s
Bit rate                                 : 59 b/s
Frame rate                               : 0.234 FPS
Count of elements                        : 665
Stream size                              : 20.5 KiB (0%)
Language                                 : Slovak
Default                                  : No
Forced                                   : No

Text #34
ID                                       : 36
Format                                   : UTF-8
Codec ID                                 : S_TEXT/UTF8
Codec ID/Info                            : UTF-8 Plain Text
Duration                                 : 47 min 19 s
Bit rate                                 : 47 b/s
Frame rate                               : 0.184 FPS
Count of elements                        : 523
Stream size                              : 16.4 KiB (0%)
Language                                 : Slovenian
Default                                  : No
Forced                                   : No

Text #35
ID                                       : 37
Format                                   : UTF-8
Codec ID                                 : S_TEXT/UTF8
Codec ID/Info                            : UTF-8 Plain Text
Duration                                 : 47 min 19 s
Bit rate                                 : 60 b/s
Frame rate                               : 0.234 FPS
Count of elements                        : 665
Stream size                              : 21.1 KiB (0%)
Language                                 : Swedish
Default                                  : No
Forced                                   : No

Text #36
ID                                       : 38
Format                                   : UTF-8
Codec ID                                 : S_TEXT/UTF8
Codec ID/Info                            : UTF-8 Plain Text
Duration                                 : 47 min 19 s
Bit rate                                 : 180 b/s
Frame rate                               : 0.235 FPS
Count of elements                        : 666
Stream size                              : 62.5 KiB (0%)
Language                                 : Tamil
Default                                  : No
Forced                                   : No

Text #37
ID                                       : 39
Format                                   : UTF-8
Codec ID                                 : S_TEXT/UTF8
Codec ID/Info                            : UTF-8 Plain Text
Duration                                 : 47 min 19 s
Bit rate                                 : 187 b/s
Frame rate                               : 0.235 FPS
Count of elements                        : 666
Stream size                              : 65.0 KiB (0%)
Language                                 : Telugu
Default                                  : No
Forced                                   : No

Text #38
ID                                       : 40
Format                                   : UTF-8
Codec ID                                 : S_TEXT/UTF8
Codec ID/Info                            : UTF-8 Plain Text
Duration                                 : 47 min 19 s
Bit rate                                 : 157 b/s
Frame rate                               : 0.235 FPS
Count of elements                        : 666
Stream size                              : 54.6 KiB (0%)
Language                                 : Thai
Default                                  : No
Forced                                   : No

Text #39
ID                                       : 41
Format                                   : UTF-8
Codec ID                                 : S_TEXT/UTF8
Codec ID/Info                            : UTF-8 Plain Text
Duration                                 : 47 min 19 s
Bit rate                                 : 61 b/s
Frame rate                               : 0.233 FPS
Count of elements                        : 661
Stream size                              : 21.5 KiB (0%)
Language                                 : Turkish
Default                                  : No
Forced                                   : No

Text #40
ID                                       : 42
Format                                   : UTF-8
Codec ID                                 : S_TEXT/UTF8
Codec ID/Info                            : UTF-8 Plain Text
Duration                                 : 47 min 19 s
Bit rate                                 : 95 b/s
Frame rate                               : 0.235 FPS
Count of elements                        : 666
Stream size                              : 33.1 KiB (0%)
Language                                 : Ukrainian
Default                                  : No
Forced                                   : No

Text #41
ID                                       : 43
Format                                   : UTF-8
Codec ID                                 : S_TEXT/UTF8
Codec ID/Info                            : UTF-8 Plain Text
Duration                                 : 47 min 19 s
Bit rate                                 : 86 b/s
Frame rate                               : 0.235 FPS
Count of elements                        : 666
Stream size                              : 30.1 KiB (0%)
Language                                 : Vietnamese
Default                                  : No
Forced                                   : No

Text #42
ID                                       : 44
Format                                   : UTF-8
Codec ID                                 : S_TEXT/UTF8
Codec ID/Info                            : UTF-8 Plain Text
Duration                                 : 47 min 19 s
Bit rate                                 : 51 b/s
Frame rate                               : 0.235 FPS
Count of elements                        : 667
Stream size                              : 18.0 KiB (0%)
Title                                    : Traditional
Language                                 : Cantonese (Hant)
Default                                  : No
Forced                                   : No

Menu
00:00:00.000                             : en:Studio Logo
00:00:08.963                             : en:Recap
00:00:56.194                             : en:Scene 01
00:04:23.110                             : en:Intro
00:04:52.319                             : en:Scene 02
00:46:24.541                             : en:Credits



Download
File Container: MKV
Video/Audio Codec: H264 (HIGH) EAC3
Video Resolution: 1920x960

1 Response to "[RR/NF] Criminal Record S01E08 Carla 1080p ATVP WEB-DL DDP5 1 Atmos H 264-CMRG (3.6GB)"
02/21/24
21:14:24
ReadyPlayerOne

Thank You

Please Login to post a comment.
If you don't have any account, please Register.
  • Subscribe my Feeds
  • Facebook
Encoding Queue:  x264  x265

Latest Episodes

Popular Movies and TV Shows

  • The Great North
  • Dune: Part Two
  • Beacon 23
  • Trinket Box
  • The Channel
  • Hazbin Hotel
  • Shogun
  • This Town
  • Guardians of the Galaxy Vol. 3
  • The Bellboy and the Playgirls
  • Resident Alien
  • Dangerous Moves
  • Parish
  • Saturday Night Live
  • Ninja Kamui
  • Fantastic Four: Rise of the Silver Surfer
  • The Taste of Things
  • Legend of the Lost Locket
  • Fallout
  • Immoral Women
  • Grey's Anatomy
  • S.W.A.T.
  • Willow
  • Scrambled
  • FBI

Recent Comments

  • mentalityx:

    Rad bloke

  • DownloadHostInspector:

    so far these RMTeam uploads always have a working link. DownloadHostInspector approved!

  • DownloadHostInspector:

    ah yes, this upload has a host that works. clicknupload. DownloadHostInspector approved!

  • DownloadHostInspector: Why are all the download hosts trash? none of them let you download it
  • Qua4ratic:

    clicknupload link plz

  • ppoo:

    Please, can you add "Real Time with Bill Maher S22E11" ??

  • theahtisham:

    Kindly upload Ep. 3 and 4 as well.

  • Kudzu: Update on sound issue, File's codec info says stereo but is only a the left channel If I switch i...
  • Admin:

    kang
    Getting error while encoding, sorry

Archives