Sign Up   |   Sign In  
Ghostbusters: Frozen EmpireAll You Need Is DeathX-Men '97FeudVanderpump Rules2024 CMT Music AwardsStar Wars: The Bad BatchUnder the BridgeThe Cleaning LadyThe BricklayerEvil Does Not ExistThe LoraxFBIFBI: InternationalFBI: Most WantedGodzilla x Kong: The New EmpireAn American Bombing: The Road to April 19thLa margeShogunPalm RoyaleAlert: Missing Persons UnitImmaculateDune: Part TwoJimmy Carr: Natural Born KillerFallout

Announcements

02/19

2024

1

Comments

CSI Vegas S03E01 The Reaper 1080p AMZN WEB-DL DDP5 1 H 264-NTb
[RR/NF]
Size: 2.8GB mkv H264 (HIGH) / EAC3  HD  1920x1080

CSI: Vegas
File Information
[img]http://lookpic.com/cdn/i2/t/0219202407560602-1.jpg[/img]
[img]http://lookpic.com/cdn/i2/t/0219202407560602-2.jpg[/img]
[img]http://lookpic.com/cdn/i2/t/0219202407560602-3.jpg[/img]

General
Unique ID                                : 185962283742885184225552782986505810934 (0x8BE70877D897B4EBF6E08D6F7372F3F6)
Complete name                            : CSI.Vegas.S03E01.The.Reaper.1080p.AMZN.WEB-DL.DDP5.1.H.264-NTb.mkv
Format                                   : Matroska
Format version                           : Version 4
File size                                : 2.78 GiB
Duration                                 : 42 min 47 s
Overall bit rate                         : 9 301 kb/s
Frame rate                               : 23.976 FPS
Writing application                      : mkvmerge v81.0 ('Milliontown') 64-bit
Writing library                          : libebml v1.4.4 + libmatroska v1.7.1

Video
ID                                       : 1
Format                                   : AVC
Format/Info                              : Advanced Video Codec
Format profile                           : High@L4
Format settings                          : CABAC / 4 Ref Frames
Format settings, CABAC                   : Yes
Format settings, Reference frames        : 4 frames
Codec ID                                 : V_MPEG4/ISO/AVC
Duration                                 : 42 min 47 s
Bit rate mode                            : Constant
Bit rate                                 : 8 659 kb/s
Nominal bit rate                         : 10 000 kb/s
Width                                    : 1 920 pixels
Height                                   : 1 080 pixels
Display aspect ratio                     : 16:9
Frame rate mode                          : Constant
Frame rate                               : 23.976 (24000/1001) FPS
Color space                              : YUV
Chroma subsampling                       : 4:2:0
Bit depth                                : 8 bits
Scan type                                : Progressive
Bits/(Pixel*Frame)                       : 0.174
Stream size                              : 2.59 GiB (93%)
Default                                  : Yes
Forced                                   : No
Color range                              : Limited
Color primaries                          : BT.709
Transfer characteristics                 : BT.709
Matrix coefficients                      : BT.709

Audio
ID                                       : 2
Format                                   : E-AC-3
Format/Info                              : Enhanced AC-3
Commercial name                          : Dolby Digital Plus
Codec ID                                 : A_EAC3
Duration                                 : 42 min 47 s
Bit rate mode                            : Constant
Bit rate                                 : 640 kb/s
Channel(s)                               : 6 channels
Channel layout                           : L R C LFE Ls Rs
Sampling rate                            : 48.0 kHz
Frame rate                               : 31.250 FPS (1536 SPF)
Compression mode                         : Lossy
Stream size                              : 196 MiB (7%)
Language                                 : English (US)
Service kind                             : Complete Main
Default                                  : Yes
Forced                                   : No

Text #1
ID                                       : 3
Format                                   : UTF-8
Codec ID                                 : S_TEXT/UTF8
Codec ID/Info                            : UTF-8 Plain Text
Duration                                 : 42 min 17 s
Bit rate                                 : 92 b/s
Frame rate                               : 0.366 FPS
Count of elements                        : 930
Stream size                              : 28.7 KiB (0%)
Language                                 : English (US)
Default                                  : No
Forced                                   : No

Text #2
ID                                       : 4
Format                                   : UTF-8
Codec ID                                 : S_TEXT/UTF8
Codec ID/Info                            : UTF-8 Plain Text
Duration                                 : 42 min 30 s
Bit rate                                 : 95 b/s
Frame rate                               : 0.377 FPS
Count of elements                        : 961
Stream size                              : 29.9 KiB (0%)
Title                                    : SDH
Language                                 : English (US)
Default                                  : No
Forced                                   : No



Download
File Container: MKV
Video/Audio Codec: H264 (HIGH) EAC3
Video Resolution: 1920x1080

1 Response to "[RR/NF] CSI Vegas S03E01 The Reaper 1080p AMZN WEB-DL DDP5 1 H 264-NTb (2.8GB)"
02/19/24
18:21:41
ReadyPlayerOne

Thank You

Please Login to post a comment.
If you don't have any account, please Register.
  • Subscribe my Feeds
  • Facebook
Encoding Queue:  x264  x265

Latest Episodes

Popular Movies and TV Shows

  • Ghostbusters: Frozen Empire
  • All You Need Is Death
  • X-Men '97
  • Feud
  • Vanderpump Rules
  • 2024 CMT Music Awards
  • Star Wars: The Bad Batch
  • Under the Bridge
  • The Cleaning Lady
  • The Bricklayer
  • Evil Does Not Exist
  • The Lorax
  • FBI
  • FBI: International
  • FBI: Most Wanted
  • Godzilla x Kong: The New Empire
  • An American Bombing: The Road to April 19th
  • La marge
  • Shogun
  • Palm Royale
  • Alert: Missing Persons Unit
  • Immaculate
  • Dune: Part Two
  • Jimmy Carr: Natural Born Killer
  • Fallout

Recent Comments

  • timt:

    Junk

  • timt:

    CAM Audio

  • timt:

    Hard Coded SUMS! Russian, I Think.

  • ubirattan:

    Mandem um Fikper, por favor.

  • kellym2: No answer yet for my query - why all the episodes "server under maintenance" on some episo...
  • Majnon:

    Rapidrar links are dead :(

  • Rake:

    Loads of "Server is under maintenance" with RR theese days...

  • kellym2: Why am I getting "Server is in maintenance mode" on some episodes of a series and not on o...
  • Bud:

    Are you ever going to put up Thursday's episode with Liev Schreiber?

  • alp-engin:

    When will that maintenance be over? Please...

  • mentalityx:

    Rad bloke

  • DownloadHostInspector:

    so far these RMTeam uploads always have a working link. DownloadHostInspector approved!

  • DownloadHostInspector:

    ah yes, this upload has a host that works. clicknupload. DownloadHostInspector approved!

  • DownloadHostInspector: Why are all the download hosts trash? none of them let you download it

Archives