Sign Up   |   Sign In  
SugarManhuntLaw & Order: Special Victims UnitBarbarianLie with MeThe ReaderYoung SheldonGhostsElsbethYou Were Never Really HereGreen LanternScreamStar Trek: DiscoveryAmerican Horror StoryFamily GuyThe Three Musketeers - Part II: MiladyGhostbusters: Frozen EmpireGodzilla x Kong: The New EmpireChuckyWalkerAnimal ControlThe InseparablesLa margeEvil Does Not ExistFBI

Announcements

02/26

2024

1

Comments

CSI Vegas S03E02 Scar Tissue 720p AMZN WEB-DL DDP5 1 H 264-FLUX
[RR/NF/CU]
Size: 1.7GB mkv H264 (HIGH) / EAC3  HD  1280x720

CSI: Vegas
File Information
[img]http://lookpic.com/cdn/i2/t/0226202412380012-1.jpg[/img]
[img]http://lookpic.com/cdn/i2/t/0226202412380012-2.jpg[/img]
[img]http://lookpic.com/cdn/i2/t/0226202412380012-3.jpg[/img]

General
Unique ID                                : 33500789301333619080916316456667528377 (0x1934046F94F70F1EA2859AD276A33CB9)
Complete name                            : CSI.Vegas.S03E02.Scar.Tissue.720p.AMZN.WEB-DL.DDP5.1.H.264-FLUX.mkv
Format                                   : Matroska
Format version                           : Version 4
File size                                : 1.73 GiB
Duration                                 : 42 min 37 s
Overall bit rate                         : 5 827 kb/s
Frame rate                               : 23.976 FPS
Writing application                      : mkvmerge v82.0 ('I'm The President') 64-bit
Writing library                          : libebml v1.4.5 + libmatroska v1.7.1

Video
ID                                       : 1
Format                                   : AVC
Format/Info                              : Advanced Video Codec
Format profile                           : High@L3.1
Format settings                          : CABAC / 4 Ref Frames
Format settings, CABAC                   : Yes
Format settings, Reference frames        : 4 frames
Codec ID                                 : V_MPEG4/ISO/AVC
Duration                                 : 42 min 37 s
Bit rate mode                            : Constant
Bit rate                                 : 5 184 kb/s
Nominal bit rate                         : 6 000 kb/s
Width                                    : 1 280 pixels
Height                                   : 720 pixels
Display aspect ratio                     : 16:9
Frame rate mode                          : Constant
Frame rate                               : 23.976 (24000/1001) FPS
Color space                              : YUV
Chroma subsampling                       : 4:2:0
Bit depth                                : 8 bits
Scan type                                : Progressive
Bits/(Pixel*Frame)                       : 0.235
Stream size                              : 1.54 GiB (89%)
Language                                 : English (US)
Default                                  : Yes
Forced                                   : No
Color range                              : Limited
Color primaries                          : BT.709
Transfer characteristics                 : BT.709
Matrix coefficients                      : BT.709

Audio
ID                                       : 2
Format                                   : E-AC-3
Format/Info                              : Enhanced AC-3
Commercial name                          : Dolby Digital Plus
Codec ID                                 : A_EAC3
Duration                                 : 42 min 36 s
Bit rate mode                            : Constant
Bit rate                                 : 640 kb/s
Channel(s)                               : 6 channels
Channel layout                           : L R C LFE Ls Rs
Sampling rate                            : 48.0 kHz
Frame rate                               : 31.250 FPS (1536 SPF)
Compression mode                         : Lossy
Stream size                              : 195 MiB (11%)
Language                                 : English
Service kind                             : Complete Main
Default                                  : Yes
Forced                                   : No

Text #1
ID                                       : 3
Format                                   : UTF-8
Codec ID                                 : S_TEXT/UTF8
Codec ID/Info                            : UTF-8 Plain Text
Duration                                 : 42 min 2 s
Bit rate                                 : 92 b/s
Frame rate                               : 0.374 FPS
Count of elements                        : 943
Stream size                              : 28.5 KiB (0%)
Language                                 : English (US)
Default                                  : No
Forced                                   : No

Text #2
ID                                       : 4
Format                                   : UTF-8
Codec ID                                 : S_TEXT/UTF8
Codec ID/Info                            : UTF-8 Plain Text
Duration                                 : 42 min 2 s
Bit rate                                 : 95 b/s
Frame rate                               : 0.391 FPS
Count of elements                        : 985
Stream size                              : 29.5 KiB (0%)
Title                                    : SDH
Language                                 : English (US)
Default                                  : No
Forced                                   : No

Menu
00:00:00.000                             : en:Scene 1
00:42:08.000                             : en:End Credits



Download
File Container: MKV
Video/Audio Codec: H264 (HIGH) EAC3
Video Resolution: 1280x720

1 Response to "[RR/NF/CU] CSI Vegas S03E02 Scar Tissue 720p AMZN WEB-DL DDP5 1 H 264-FLUX (1.7GB)"
02/26/24
23:15:52
ReadyPlayerOne

Thank you!

Please Login to post a comment.
If you don't have any account, please Register.
  • Subscribe my Feeds
  • Facebook
Encoding Queue:  x264  x265

Latest Episodes

Popular Movies and TV Shows

  • Sugar
  • Manhunt
  • Law & Order: Special Victims Unit
  • Barbarian
  • Lie with Me
  • The Reader
  • Young Sheldon
  • Ghosts
  • Elsbeth
  • You Were Never Really Here
  • Green Lantern
  • Scream
  • Star Trek: Discovery
  • American Horror Story
  • Family Guy
  • The Three Musketeers - Part II: Milady
  • Ghostbusters: Frozen Empire
  • Godzilla x Kong: The New Empire
  • Chucky
  • Walker
  • Animal Control
  • The Inseparables
  • La marge
  • Evil Does Not Exist
  • FBI

Recent Comments

  • Draveren: hi. can we solve this "server under maintenance" stuff, already? if back in the day i'd ke...
  • Majnon: The links are dead. Please re-upload
  • timt:

    Anyone have the movie "Shoot" (1976) to post?

  • Nightshade: Hey, it appears at least the RMTeam separate episodes and ION's packs for the first two seasons of t...
  • Bigfishguy:

    There's no free option to download this video. Can someone please upload it to clicknupload?

  • timt:

    Junk

  • timt:

    CAM Audio

  • timt:

    Hard Coded SUMS! Russian, I Think.

  • ubirattan:

    Mandem um Fikper, por favor.

  • kellym2: No answer yet for my query - why all the episodes "server under maintenance" on some episo...
  • Majnon:

    Rapidrar links are dead :(

  • Rake:

    Loads of "Server is under maintenance" with RR theese days...

  • kellym2: Why am I getting "Server is in maintenance mode" on some episodes of a series and not on o...
  • Bud:

    Are you ever going to put up Thursday's episode with Liev Schreiber?

Archives