Sign Up   |   Sign In  
WWE NXTEvilWalkerBratsThe BraidIn the Line of FireColin from AccountsCriminal MindsInside No. 9The Artifice GirlOriginColdplay Live in São PauloThe AcolytePresumed InnocentDark MatterThe PrimevalsMysteries of the Terracotta WarriorsCamille 2000The Big Door PrizeThe Bold and the BeautifulTryingLost SoulzHow Music Got FreeThe Beast in the JungleThe Daily Show

Announcements

05/20

2024

1

Comments

CSI Vegas S03E10 Tunnel Vision 1080p AMZN WEB-DL DDP5 1 H 264-NTb
[RR/NF]
Size: 3GB mkv H264 (HIGH) / EAC3  HD  1920x1080

CSI: Vegas
File Information
[img]http://lookpic.com/cdn/i2/t/0520202408303280-1.jpg[/img]
[img]http://lookpic.com/cdn/i2/t/0520202408303280-2.jpg[/img]
[img]http://lookpic.com/cdn/i2/t/0520202408303280-3.jpg[/img]

General
Unique ID                                : 194723428417918502136184444337592266589 (0x927E5E4026E77695DA7F42EF8FE4EF5D)
Complete name                            : CSI Vegas S03E10 Tunnel Vision 1080p AMZN WEB-DL DDP5 1 H 264-NTb.mkv
Format                                   : Matroska
Format version                           : Version 4
File size                                : 2.97 GiB
Duration                                 : 42 min 38 s
Overall bit rate                         : 9 971 kb/s
Frame rate                               : 23.976 FPS
Writing application                      : mkvmerge v84.0 ('Sleeper') 64-bit
Writing library                          : libebml v1.4.5 + libmatroska v1.7.1

Video
ID                                       : 1
Format                                   : AVC
Format/Info                              : Advanced Video Codec
Format profile                           : High@L4
Format settings                          : CABAC / 4 Ref Frames
Format settings, CABAC                   : Yes
Format settings, Reference frames        : 4 frames
Codec ID                                 : V_MPEG4/ISO/AVC
Duration                                 : 42 min 38 s
Bit rate mode                            : Constant
Bit rate                                 : 9 329 kb/s
Nominal bit rate                         : 10 000 kb/s
Width                                    : 1 920 pixels
Height                                   : 1 080 pixels
Display aspect ratio                     : 16:9
Frame rate mode                          : Constant
Frame rate                               : 23.976 (24000/1001) FPS
Color space                              : YUV
Chroma subsampling                       : 4:2:0
Bit depth                                : 8 bits
Scan type                                : Progressive
Bits/(Pixel*Frame)                       : 0.188
Stream size                              : 2.78 GiB (94%)
Default                                  : Yes
Forced                                   : No
Color range                              : Limited
Color primaries                          : BT.709
Transfer characteristics                 : BT.709
Matrix coefficients                      : BT.709

Audio
ID                                       : 2
Format                                   : E-AC-3
Format/Info                              : Enhanced AC-3
Commercial name                          : Dolby Digital Plus
Codec ID                                 : A_EAC3
Duration                                 : 42 min 38 s
Bit rate mode                            : Constant
Bit rate                                 : 640 kb/s
Channel(s)                               : 6 channels
Channel layout                           : L R C LFE Ls Rs
Sampling rate                            : 48.0 kHz
Frame rate                               : 31.250 FPS (1536 SPF)
Compression mode                         : Lossy
Stream size                              : 195 MiB (6%)
Language                                 : English (US)
Service kind                             : Complete Main
Default                                  : Yes
Forced                                   : No

Text #1
ID                                       : 3
Format                                   : UTF-8
Codec ID                                 : S_TEXT/UTF8
Codec ID/Info                            : UTF-8 Plain Text
Duration                                 : 42 min 14 s
Bit rate                                 : 89 b/s
Frame rate                               : 0.364 FPS
Count of elements                        : 923
Stream size                              : 27.7 KiB (0%)
Language                                 : English (US)
Default                                  : No
Forced                                   : No

Text #2
ID                                       : 4
Format                                   : UTF-8
Codec ID                                 : S_TEXT/UTF8
Codec ID/Info                            : UTF-8 Plain Text
Duration                                 : 42 min 14 s
Bit rate                                 : 93 b/s
Frame rate                               : 0.385 FPS
Count of elements                        : 976
Stream size                              : 29.0 KiB (0%)
Title                                    : SDH
Language                                 : English (US)
Default                                  : No
Forced                                   : No



Download
File Container: MKV
Video/Audio Codec: H264 (HIGH) EAC3
Video Resolution: 1920x1080

1 Response to "[RR/NF] CSI Vegas S03E10 Tunnel Vision 1080p AMZN WEB-DL DDP5 1 H 264-NTb (3GB)"
05/20/24
12:09:19
ReadyPlayerOne

Thank You

Please Login to post a comment.
If you don't have any account, please Register.
  • Subscribe my Feeds
  • Facebook
Encoding Queue:  x264  x265

Latest Episodes

Popular Movies and TV Shows

  • WWE NXT
  • Evil
  • Walker
  • Brats
  • The Braid
  • In the Line of Fire
  • Colin from Accounts
  • Criminal Minds
  • Inside No. 9
  • The Artifice Girl
  • Origin
  • Coldplay Live in São Paulo
  • The Acolyte
  • Presumed Innocent
  • Dark Matter
  • The Primevals
  • Mysteries of the Terracotta Warriors
  • Camille 2000
  • The Big Door Prize
  • The Bold and the Beautiful
  • Trying
  • Lost Soulz
  • How Music Got Free
  • The Beast in the Jungle
  • The Daily Show

Recent Comments

  • Diggety247:

    BrokenHanded, Try using a DL manager.

  • BrokenHanded: clicknupload does not seem to work for past few days. keep getting an error saying the site is sendi...
  • Bud: Helps if you actually add these to the "Late Night with Seth Meyers" page too...
  • rambaldi70:

    Hy! Right now, my download speed : 1 Mb/s
    this is ok?
    Tx answer

  • Cinque_Persson: At 183 MB this had to be something completely different. In fact it's just the main actors commentin...
  • meyat74:

    my bad, should be full season

  • Oscar2:

    Halo "is" a good show

  • MeH:

    "one of the most impressive scenes"

Archives