Sign Up   |   Sign In  
Ghostbusters: Frozen EmpireX-Men '97All You Need Is DeathFeudBlood Free2024 CMT Music AwardsStar Wars: The Bad BatchThe Cleaning LadyUnder the BridgeEvil Does Not ExistThe BricklayerThe LoraxFBIFBI: InternationalFBI: Most WantedGodzilla x Kong: The New EmpireAn American Bombing: The Road to April 19thLa margeShogunPalm RoyaleAlert: Missing Persons UnitImmaculateDune: Part TwoJimmy Carr: Natural Born KillerFallout

Announcements

02/19

2024

1

Comments

Curb Your Enthusiasm S12E03 Vertical Drop Horizontal Tug 1080p AMZN WEB-DL DDP5 1 H 264-NTb
[RR/NF]
Size: 2.7GB mkv H264 (HIGH) / EAC3  HD  1920x1080

Curb Your Enthusiasm
File Information
[img]http://lookpic.com/cdn/i2/t/0218202420024027-1.jpg[/img]
[img]http://lookpic.com/cdn/i2/t/0218202420024027-2.jpg[/img]
[img]http://lookpic.com/cdn/i2/t/0218202420024027-3.jpg[/img]

General
Unique ID                                : 13770397002765106795284748710399812058 (0xA5C14FD84859E0BCEA83405B46DA1DA)
Complete name                            : Curb.Your.Enthusiasm.S12E03.Vertical.Drop.Horizontal.Tug.1080p.AMZN.WEB-DL.DDP5.1.H.264-NTb.mkv
Format                                   : Matroska
Format version                           : Version 4
File size                                : 2.74 GiB
Duration                                 : 39 min 24 s
Overall bit rate                         : 9 945 kb/s
Frame rate                               : 23.976 FPS
Writing application                      : mkvmerge v81.0 ('Milliontown') 64-bit
Writing library                          : libebml v1.4.4 + libmatroska v1.7.1

Video
ID                                       : 1
Format                                   : AVC
Format/Info                              : Advanced Video Codec
Format profile                           : High@L4
Format settings                          : CABAC / 4 Ref Frames
Format settings, CABAC                   : Yes
Format settings, Reference frames        : 4 frames
Codec ID                                 : V_MPEG4/ISO/AVC
Duration                                 : 39 min 23 s
Bit rate mode                            : Constant
Bit rate                                 : 9 302 kb/s
Nominal bit rate                         : 10 000 kb/s
Width                                    : 1 920 pixels
Height                                   : 1 080 pixels
Display aspect ratio                     : 16:9
Frame rate mode                          : Constant
Frame rate                               : 23.976 (24000/1001) FPS
Color space                              : YUV
Chroma subsampling                       : 4:2:0
Bit depth                                : 8 bits
Scan type                                : Progressive
Bits/(Pixel*Frame)                       : 0.187
Stream size                              : 2.56 GiB (94%)
Default                                  : Yes
Forced                                   : No
Color range                              : Limited
Color primaries                          : BT.709
Transfer characteristics                 : BT.709
Matrix coefficients                      : BT.709

Audio
ID                                       : 2
Format                                   : E-AC-3
Format/Info                              : Enhanced AC-3
Commercial name                          : Dolby Digital Plus
Codec ID                                 : A_EAC3
Duration                                 : 39 min 23 s
Bit rate mode                            : Constant
Bit rate                                 : 640 kb/s
Channel(s)                               : 6 channels
Channel layout                           : L R C LFE Ls Rs
Sampling rate                            : 48.0 kHz
Frame rate                               : 31.250 FPS (1536 SPF)
Compression mode                         : Lossy
Stream size                              : 180 MiB (6%)
Language                                 : English (US)
Service kind                             : Complete Main
Default                                  : Yes
Forced                                   : No

Text #1
ID                                       : 3
Format                                   : UTF-8
Codec ID                                 : S_TEXT/UTF8
Codec ID/Info                            : UTF-8 Plain Text
Duration                                 : 37 min 56 s
Bit rate                                 : 118 b/s
Frame rate                               : 0.337 FPS
Count of elements                        : 768
Stream size                              : 33.0 KiB (0%)
Title                                    : English #1
Language                                 : English (US)
Default                                  : No
Forced                                   : No

Text #2
ID                                       : 4
Format                                   : UTF-8
Codec ID                                 : S_TEXT/UTF8
Codec ID/Info                            : UTF-8 Plain Text
Duration                                 : 39 min 16 s
Bit rate                                 : 135 b/s
Frame rate                               : 0.477 FPS
Count of elements                        : 1123
Stream size                              : 39.1 KiB (0%)
Title                                    : English #2
Language                                 : English (US)
Default                                  : No
Forced                                   : No

Text #3
ID                                       : 5
Format                                   : UTF-8
Codec ID                                 : S_TEXT/UTF8
Codec ID/Info                            : UTF-8 Plain Text
Duration                                 : 39 min 16 s
Bit rate                                 : 147 b/s
Frame rate                               : 0.489 FPS
Count of elements                        : 1153
Stream size                              : 42.3 KiB (0%)
Title                                    : English #2 (SDH)
Language                                 : English (US)
Default                                  : No
Forced                                   : No

Text #4
ID                                       : 6
Format                                   : UTF-8
Codec ID                                 : S_TEXT/UTF8
Codec ID/Info                            : UTF-8 Plain Text
Duration                                 : 38 min 12 s
Bit rate                                 : 156 b/s
Frame rate                               : 0.322 FPS
Count of elements                        : 738
Stream size                              : 43.9 KiB (0%)
Language                                 : Bulgarian (BG)
Default                                  : No
Forced                                   : No

Text #5
ID                                       : 7
Format                                   : UTF-8
Codec ID                                 : S_TEXT/UTF8
Codec ID/Info                            : UTF-8 Plain Text
Duration                                 : 38 min 6 s
Bit rate                                 : 108 b/s
Frame rate                               : 0.336 FPS
Count of elements                        : 769
Stream size                              : 30.3 KiB (0%)
Language                                 : Czech (CZ)
Default                                  : No
Forced                                   : No

Text #6
ID                                       : 8
Format                                   : UTF-8
Codec ID                                 : S_TEXT/UTF8
Codec ID/Info                            : UTF-8 Plain Text
Duration                                 : 39 min 11 s
Bit rate                                 : 79 b/s
Frame rate                               : 0.209 FPS
Count of elements                        : 492
Stream size                              : 22.9 KiB (0%)
Language                                 : Danish (DK)
Default                                  : No
Forced                                   : No

Text #7
ID                                       : 9
Format                                   : UTF-8
Codec ID                                 : S_TEXT/UTF8
Codec ID/Info                            : UTF-8 Plain Text
Duration                                 : 39 min 11 s
Bit rate                                 : 103 b/s
Frame rate                               : 0.329 FPS
Count of elements                        : 773
Stream size                              : 29.6 KiB (0%)
Language                                 : Spanish (Latin America)
Default                                  : No
Forced                                   : No

Text #8
ID                                       : 10
Format                                   : UTF-8
Codec ID                                 : S_TEXT/UTF8
Codec ID/Info                            : UTF-8 Plain Text
Duration                                 : 38 min 2 s
Bit rate                                 : 93 b/s
Frame rate                               : 0.346 FPS
Count of elements                        : 790
Stream size                              : 26.2 KiB (0%)
Language                                 : Estonian (EE)
Default                                  : No
Forced                                   : No

Text #9
ID                                       : 11
Format                                   : UTF-8
Codec ID                                 : S_TEXT/UTF8
Codec ID/Info                            : UTF-8 Plain Text
Duration                                 : 38 min 2 s
Bit rate                                 : 88 b/s
Frame rate                               : 0.293 FPS
Count of elements                        : 669
Stream size                              : 24.6 KiB (0%)
Language                                 : Finnish (FI)
Default                                  : No
Forced                                   : No

Text #10
ID                                       : 12
Format                                   : UTF-8
Codec ID                                 : S_TEXT/UTF8
Codec ID/Info                            : UTF-8 Plain Text
Duration                                 : 38 min 4 s
Bit rate                                 : 99 b/s
Frame rate                               : 0.237 FPS
Count of elements                        : 542
Stream size                              : 27.6 KiB (0%)
Language                                 : Croatian (HR)
Default                                  : No
Forced                                   : No

Text #11
ID                                       : 13
Format                                   : UTF-8
Codec ID                                 : S_TEXT/UTF8
Codec ID/Info                            : UTF-8 Plain Text
Duration                                 : 38 min 5 s
Bit rate                                 : 105 b/s
Frame rate                               : 0.330 FPS
Count of elements                        : 755
Stream size                              : 29.4 KiB (0%)
Language                                 : Hungarian (HU)
Default                                  : No
Forced                                   : No

Text #12
ID                                       : 14
Format                                   : UTF-8
Codec ID                                 : S_TEXT/UTF8
Codec ID/Info                            : UTF-8 Plain Text
Duration                                 : 38 min 2 s
Bit rate                                 : 93 b/s
Frame rate                               : 0.350 FPS
Count of elements                        : 799
Stream size                              : 26.1 KiB (0%)
Language                                 : Lithuanian (LT)
Default                                  : No
Forced                                   : No

Text #13
ID                                       : 15
Format                                   : UTF-8
Codec ID                                 : S_TEXT/UTF8
Codec ID/Info                            : UTF-8 Plain Text
Duration                                 : 38 min 2 s
Bit rate                                 : 92 b/s
Frame rate                               : 0.349 FPS
Count of elements                        : 796
Stream size                              : 25.7 KiB (0%)
Language                                 : Latvian (LV)
Default                                  : No
Forced                                   : No

Text #14
ID                                       : 16
Format                                   : UTF-8
Codec ID                                 : S_TEXT/UTF8
Codec ID/Info                            : UTF-8 Plain Text
Duration                                 : 38 min 4 s
Bit rate                                 : 158 b/s
Frame rate                               : 0.237 FPS
Count of elements                        : 542
Stream size                              : 44.1 KiB (0%)
Language                                 : Macedonian (MK)
Default                                  : No
Forced                                   : No

Text #15
ID                                       : 17
Format                                   : UTF-8
Codec ID                                 : S_TEXT/UTF8
Codec ID/Info                            : UTF-8 Plain Text
Duration                                 : 38 min 2 s
Bit rate                                 : 95 b/s
Frame rate                               : 0.272 FPS
Count of elements                        : 622
Stream size                              : 26.6 KiB (0%)
Language                                 : Dutch (NL)
Default                                  : No
Forced                                   : No

Text #16
ID                                       : 18
Format                                   : UTF-8
Codec ID                                 : S_TEXT/UTF8
Codec ID/Info                            : UTF-8 Plain Text
Duration                                 : 39 min 12 s
Bit rate                                 : 78 b/s
Frame rate                               : 0.202 FPS
Count of elements                        : 476
Stream size                              : 22.5 KiB (0%)
Language                                 : Norwegian (NO)
Default                                  : No
Forced                                   : No

Text #17
ID                                       : 19
Format                                   : UTF-8
Codec ID                                 : S_TEXT/UTF8
Codec ID/Info                            : UTF-8 Plain Text
Duration                                 : 38 min 51 s
Bit rate                                 : 71 b/s
Frame rate                               : 0.354 FPS
Count of elements                        : 825
Stream size                              : 20.3 KiB (0%)
Language                                 : Polish (PL)
Default                                  : No
Forced                                   : No

Text #18
ID                                       : 20
Format                                   : UTF-8
Codec ID                                 : S_TEXT/UTF8
Codec ID/Info                            : UTF-8 Plain Text
Duration                                 : 38 min 1 s
Bit rate                                 : 103 b/s
Frame rate                               : 0.339 FPS
Count of elements                        : 773
Stream size                              : 28.8 KiB (0%)
Title                                    : Portuguese (Brazil)
Language                                 : Portuguese (BR)
Default                                  : No
Forced                                   : No

Text #19
ID                                       : 21
Format                                   : UTF-8
Codec ID                                 : S_TEXT/UTF8
Codec ID/Info                            : UTF-8 Plain Text
Duration                                 : 38 min 2 s
Bit rate                                 : 102 b/s
Frame rate                               : 0.348 FPS
Count of elements                        : 795
Stream size                              : 28.7 KiB (0%)
Title                                    : Portuguese (Portugal)
Language                                 : Portuguese (PT)
Default                                  : No
Forced                                   : No

Text #20
ID                                       : 22
Format                                   : UTF-8
Codec ID                                 : S_TEXT/UTF8
Codec ID/Info                            : UTF-8 Plain Text
Duration                                 : 38 min 11 s
Bit rate                                 : 100 b/s
Frame rate                               : 0.308 FPS
Count of elements                        : 705
Stream size                              : 28.1 KiB (0%)
Language                                 : Romanian (RO)
Default                                  : No
Forced                                   : No

Text #21
ID                                       : 23
Format                                   : UTF-8
Codec ID                                 : S_TEXT/UTF8
Codec ID/Info                            : UTF-8 Plain Text
Duration                                 : 38 min 4 s
Bit rate                                 : 90 b/s
Frame rate                               : 0.237 FPS
Count of elements                        : 542
Stream size                              : 25.2 KiB (0%)
Language                                 : Slovenian (SI)
Default                                  : No
Forced                                   : No

Text #22
ID                                       : 24
Format                                   : UTF-8
Codec ID                                 : S_TEXT/UTF8
Codec ID/Info                            : UTF-8 Plain Text
Duration                                 : 38 min 4 s
Bit rate                                 : 96 b/s
Frame rate                               : 0.237 FPS
Count of elements                        : 542
Stream size                              : 27.0 KiB (0%)
Language                                 : Serbian-Latn-RS
Default                                  : No
Forced                                   : No

Text #23
ID                                       : 25
Format                                   : UTF-8
Codec ID                                 : S_TEXT/UTF8
Codec ID/Info                            : UTF-8 Plain Text
Duration                                 : 39 min 12 s
Bit rate                                 : 81 b/s
Frame rate                               : 0.202 FPS
Count of elements                        : 476
Stream size                              : 23.5 KiB (0%)
Language                                 : Swedish (SE)
Default                                  : No
Forced                                   : No



Download
File Container: MKV
Video/Audio Codec: H264 (HIGH) EAC3
Video Resolution: 1920x1080

1 Response to "[RR/NF] Curb Your Enthusiasm S12E03 Vertical Drop Horizontal Tug 1080p AMZN WEB-DL DDP5 1 H 264-NTb (2.7GB)"
02/19/24
07:41:21
ReadyPlayerOne

Thank You

Please Login to post a comment.
If you don't have any account, please Register.
  • Subscribe my Feeds
  • Facebook
Encoding Queue:  x264  x265

Latest Episodes

Popular Movies and TV Shows

  • Ghostbusters: Frozen Empire
  • X-Men '97
  • All You Need Is Death
  • Feud
  • Blood Free
  • 2024 CMT Music Awards
  • Star Wars: The Bad Batch
  • The Cleaning Lady
  • Under the Bridge
  • Evil Does Not Exist
  • The Bricklayer
  • The Lorax
  • FBI
  • FBI: International
  • FBI: Most Wanted
  • Godzilla x Kong: The New Empire
  • An American Bombing: The Road to April 19th
  • La marge
  • Shogun
  • Palm Royale
  • Alert: Missing Persons Unit
  • Immaculate
  • Dune: Part Two
  • Jimmy Carr: Natural Born Killer
  • Fallout

Recent Comments

  • timt:

    Junk

  • timt:

    CAM Audio

  • timt:

    Hard Coded SUMS! Russian, I Think.

  • ubirattan:

    Mandem um Fikper, por favor.

  • kellym2: No answer yet for my query - why all the episodes "server under maintenance" on some episo...
  • Majnon:

    Rapidrar links are dead :(

  • Rake:

    Loads of "Server is under maintenance" with RR theese days...

  • kellym2: Why am I getting "Server is in maintenance mode" on some episodes of a series and not on o...
  • Bud:

    Are you ever going to put up Thursday's episode with Liev Schreiber?

  • alp-engin:

    When will that maintenance be over? Please...

  • mentalityx:

    Rad bloke

  • DownloadHostInspector:

    so far these RMTeam uploads always have a working link. DownloadHostInspector approved!

  • DownloadHostInspector:

    ah yes, this upload has a host that works. clicknupload. DownloadHostInspector approved!

  • DownloadHostInspector: Why are all the download hosts trash? none of them let you download it

Archives