Sign Up   |   Sign In  
SugarA Gentleman in MoscowYoung SheldonRiver WildDune: Part TwoLate Night with the DevilLaw & Order: Special Victims UnitManhuntGhostsYou Were Never Really HereThe ReaderBarbarianStar Trek: DiscoveryFamily GuyAmerican Horror StoryGhostbusters: Frozen EmpireThe Three Musketeers - Part II: MiladyGreen LanternChuckyThe Bold and the BeautifulWalkerGodzilla x Kong: The New EmpireLa margeThe InseparablesFBI

Announcements

02/26

2024

No

Comments

Curb Your Enthusiasm S12E04 Disgruntled 720p AMZN WEB-DL DDP5 1 H 264-NTb
[RR/NF/CU]
Size: 1003MB mkv H264 (HIGH) / EAC3  HD  1280x720

Curb Your Enthusiasm
File Information
[img]http://lookpic.com/cdn/i2/t/0225202422552458-1.jpg[/img]
[img]http://lookpic.com/cdn/i2/t/0225202422552458-2.jpg[/img]
[img]http://lookpic.com/cdn/i2/t/0225202422552458-3.jpg[/img]

General
Unique ID                                : 227800218332760505468628253909269721127 (0xAB60B9E718AE4796AA91A1B99735B027)
Complete name                            : Curb.Your.Enthusiasm.S12E04.Disgruntled.720p.AMZN.WEB-DL.DDP5.1.H.264-NTb.mkv
Format                                   : Matroska
Format version                           : Version 4
File size                                : 1 004 MiB
Duration                                 : 31 min 42 s
Overall bit rate                         : 4 426 kb/s
Frame rate                               : 23.976 FPS
Writing application                      : mkvmerge v81.0 ('Milliontown') 64-bit
Writing library                          : libebml v1.4.4 + libmatroska v1.7.1

Video
ID                                       : 1
Format                                   : AVC
Format/Info                              : Advanced Video Codec
Format profile                           : High@L3.1
Format settings                          : CABAC / 4 Ref Frames
Format settings, CABAC                   : Yes
Format settings, Reference frames        : 4 frames
Codec ID                                 : V_MPEG4/ISO/AVC
Duration                                 : 31 min 42 s
Bit rate mode                            : Constant
Bit rate                                 : 3 780 kb/s
Nominal bit rate                         : 4 000 kb/s
Width                                    : 1 280 pixels
Height                                   : 720 pixels
Display aspect ratio                     : 16:9
Frame rate mode                          : Constant
Frame rate                               : 23.976 (24000/1001) FPS
Color space                              : YUV
Chroma subsampling                       : 4:2:0
Bit depth                                : 8 bits
Scan type                                : Progressive
Bits/(Pixel*Frame)                       : 0.171
Stream size                              : 857 MiB (85%)
Default                                  : Yes
Forced                                   : No
Color range                              : Limited
Color primaries                          : BT.709
Transfer characteristics                 : BT.709
Matrix coefficients                      : BT.709

Audio
ID                                       : 2
Format                                   : E-AC-3
Format/Info                              : Enhanced AC-3
Commercial name                          : Dolby Digital Plus
Codec ID                                 : A_EAC3
Duration                                 : 31 min 42 s
Bit rate mode                            : Constant
Bit rate                                 : 640 kb/s
Channel(s)                               : 6 channels
Channel layout                           : L R C LFE Ls Rs
Sampling rate                            : 48.0 kHz
Frame rate                               : 31.250 FPS (1536 SPF)
Compression mode                         : Lossy
Stream size                              : 145 MiB (14%)
Language                                 : English (US)
Service kind                             : Complete Main
Default                                  : Yes
Forced                                   : No

Text #1
ID                                       : 3
Format                                   : UTF-8
Codec ID                                 : S_TEXT/UTF8
Codec ID/Info                            : UTF-8 Plain Text
Duration                                 : 30 min 7 s
Bit rate                                 : 112 b/s
Frame rate                               : 0.318 FPS
Count of elements                        : 575
Stream size                              : 24.9 KiB (0%)
Title                                    : English #1
Language                                 : English (US)
Default                                  : No
Forced                                   : No

Text #2
ID                                       : 4
Format                                   : UTF-8
Codec ID                                 : S_TEXT/UTF8
Codec ID/Info                            : UTF-8 Plain Text
Duration                                 : 30 min 7 s
Bit rate                                 : 136 b/s
Frame rate                               : 0.462 FPS
Count of elements                        : 835
Stream size                              : 30.2 KiB (0%)
Title                                    : English #2
Language                                 : English (US)
Default                                  : No
Forced                                   : No

Text #3
ID                                       : 5
Format                                   : UTF-8
Codec ID                                 : S_TEXT/UTF8
Codec ID/Info                            : UTF-8 Plain Text
Duration                                 : 31 min 34 s
Bit rate                                 : 140 b/s
Frame rate                               : 0.454 FPS
Count of elements                        : 861
Stream size                              : 32.6 KiB (0%)
Title                                    : English #2 (SDH)
Language                                 : English (US)
Default                                  : No
Forced                                   : No

Text #4
ID                                       : 6
Format                                   : UTF-8
Codec ID                                 : S_TEXT/UTF8
Codec ID/Info                            : UTF-8 Plain Text
Duration                                 : 30 min 30 s
Bit rate                                 : 152 b/s
Frame rate                               : 0.306 FPS
Count of elements                        : 561
Stream size                              : 34.0 KiB (0%)
Language                                 : Bulgarian (BG)
Default                                  : No
Forced                                   : No

Text #5
ID                                       : 7
Format                                   : UTF-8
Codec ID                                 : S_TEXT/UTF8
Codec ID/Info                            : UTF-8 Plain Text
Duration                                 : 30 min 24 s
Bit rate                                 : 106 b/s
Frame rate                               : 0.317 FPS
Count of elements                        : 579
Stream size                              : 23.7 KiB (0%)
Language                                 : Czech (CZ)
Default                                  : No
Forced                                   : No

Text #6
ID                                       : 8
Format                                   : UTF-8
Codec ID                                 : S_TEXT/UTF8
Codec ID/Info                            : UTF-8 Plain Text
Duration                                 : 31 min 30 s
Bit rate                                 : 78 b/s
Frame rate                               : 0.205 FPS
Count of elements                        : 387
Stream size                              : 18.0 KiB (0%)
Language                                 : Danish (DK)
Default                                  : No
Forced                                   : No

Text #7
ID                                       : 9
Format                                   : UTF-8
Codec ID                                 : S_TEXT/UTF8
Codec ID/Info                            : UTF-8 Plain Text
Duration                                 : 30 min 21 s
Bit rate                                 : 105 b/s
Frame rate                               : 0.373 FPS
Count of elements                        : 680
Stream size                              : 23.4 KiB (0%)
Language                                 : Spanish (Latin America)
Default                                  : No
Forced                                   : No

Text #8
ID                                       : 10
Format                                   : UTF-8
Codec ID                                 : S_TEXT/UTF8
Codec ID/Info                            : UTF-8 Plain Text
Duration                                 : 30 min 21 s
Bit rate                                 : 92 b/s
Frame rate                               : 0.307 FPS
Count of elements                        : 560
Stream size                              : 20.6 KiB (0%)
Language                                 : Estonian (EE)
Default                                  : No
Forced                                   : No

Text #9
ID                                       : 11
Format                                   : UTF-8
Codec ID                                 : S_TEXT/UTF8
Codec ID/Info                            : UTF-8 Plain Text
Duration                                 : 30 min 21 s
Bit rate                                 : 86 b/s
Frame rate                               : 0.279 FPS
Count of elements                        : 508
Stream size                              : 19.3 KiB (0%)
Language                                 : Finnish (FI)
Default                                  : No
Forced                                   : No

Text #10
ID                                       : 12
Format                                   : UTF-8
Codec ID                                 : S_TEXT/UTF8
Codec ID/Info                            : UTF-8 Plain Text
Duration                                 : 30 min 28 s
Bit rate                                 : 86 b/s
Frame rate                               : 0.254 FPS
Count of elements                        : 465
Stream size                              : 19.4 KiB (0%)
Language                                 : Croatian (HR)
Default                                  : No
Forced                                   : No

Text #11
ID                                       : 13
Format                                   : UTF-8
Codec ID                                 : S_TEXT/UTF8
Codec ID/Info                            : UTF-8 Plain Text
Duration                                 : 30 min 28 s
Bit rate                                 : 103 b/s
Frame rate                               : 0.312 FPS
Count of elements                        : 571
Stream size                              : 23.2 KiB (0%)
Language                                 : Hungarian (HU)
Default                                  : No
Forced                                   : No

Text #12
ID                                       : 14
Format                                   : UTF-8
Codec ID                                 : S_TEXT/UTF8
Codec ID/Info                            : UTF-8 Plain Text
Duration                                 : 30 min 21 s
Bit rate                                 : 93 b/s
Frame rate                               : 0.307 FPS
Count of elements                        : 560
Stream size                              : 20.7 KiB (0%)
Language                                 : Lithuanian (LT)
Default                                  : No
Forced                                   : No

Text #13
ID                                       : 15
Format                                   : UTF-8
Codec ID                                 : S_TEXT/UTF8
Codec ID/Info                            : UTF-8 Plain Text
Duration                                 : 30 min 21 s
Bit rate                                 : 93 b/s
Frame rate                               : 0.307 FPS
Count of elements                        : 560
Stream size                              : 20.8 KiB (0%)
Language                                 : Latvian (LV)
Default                                  : No
Forced                                   : No

Text #14
ID                                       : 16
Format                                   : UTF-8
Codec ID                                 : S_TEXT/UTF8
Codec ID/Info                            : UTF-8 Plain Text
Duration                                 : 30 min 28 s
Bit rate                                 : 150 b/s
Frame rate                               : 0.254 FPS
Count of elements                        : 465
Stream size                              : 33.7 KiB (0%)
Language                                 : Macedonian (MK)
Default                                  : No
Forced                                   : No

Text #15
ID                                       : 17
Format                                   : UTF-8
Codec ID                                 : S_TEXT/UTF8
Codec ID/Info                            : UTF-8 Plain Text
Duration                                 : 30 min 13 s
Bit rate                                 : 93 b/s
Frame rate                               : 0.261 FPS
Count of elements                        : 473
Stream size                              : 20.7 KiB (0%)
Language                                 : Dutch (NL)
Default                                  : No
Forced                                   : No

Text #16
ID                                       : 18
Format                                   : UTF-8
Codec ID                                 : S_TEXT/UTF8
Codec ID/Info                            : UTF-8 Plain Text
Duration                                 : 31 min 30 s
Bit rate                                 : 77 b/s
Frame rate                               : 0.197 FPS
Count of elements                        : 372
Stream size                              : 17.9 KiB (0%)
Language                                 : Norwegian (NO)
Default                                  : No
Forced                                   : No

Text #17
ID                                       : 19
Format                                   : UTF-8
Codec ID                                 : S_TEXT/UTF8
Codec ID/Info                            : UTF-8 Plain Text
Duration                                 : 31 min 10 s
Bit rate                                 : 70 b/s
Frame rate                               : 0.343 FPS
Count of elements                        : 641
Stream size                              : 16.0 KiB (0%)
Language                                 : Polish (PL)
Default                                  : No
Forced                                   : No

Text #18
ID                                       : 20
Format                                   : UTF-8
Codec ID                                 : S_TEXT/UTF8
Codec ID/Info                            : UTF-8 Plain Text
Duration                                 : 30 min 19 s
Bit rate                                 : 106 b/s
Frame rate                               : 0.380 FPS
Count of elements                        : 691
Stream size                              : 23.7 KiB (0%)
Title                                    : Portuguese (Brazil)
Language                                 : Portuguese (BR)
Default                                  : No
Forced                                   : No

Text #19
ID                                       : 21
Format                                   : UTF-8
Codec ID                                 : S_TEXT/UTF8
Codec ID/Info                            : UTF-8 Plain Text
Duration                                 : 30 min 21 s
Bit rate                                 : 103 b/s
Frame rate                               : 0.309 FPS
Count of elements                        : 563
Stream size                              : 22.9 KiB (0%)
Title                                    : Portuguese (Portugal)
Language                                 : Portuguese (PT)
Default                                  : No
Forced                                   : No

Text #20
ID                                       : 22
Format                                   : UTF-8
Codec ID                                 : S_TEXT/UTF8
Codec ID/Info                            : UTF-8 Plain Text
Duration                                 : 30 min 30 s
Bit rate                                 : 99 b/s
Frame rate                               : 0.292 FPS
Count of elements                        : 534
Stream size                              : 22.3 KiB (0%)
Language                                 : Romanian (RO)
Default                                  : No
Forced                                   : No

Text #21
ID                                       : 23
Format                                   : UTF-8
Codec ID                                 : S_TEXT/UTF8
Codec ID/Info                            : UTF-8 Plain Text
Duration                                 : 30 min 28 s
Bit rate                                 : 82 b/s
Frame rate                               : 0.254 FPS
Count of elements                        : 465
Stream size                              : 18.5 KiB (0%)
Language                                 : Slovenian (SI)
Default                                  : No
Forced                                   : No

Text #22
ID                                       : 24
Format                                   : UTF-8
Codec ID                                 : S_TEXT/UTF8
Codec ID/Info                            : UTF-8 Plain Text
Duration                                 : 30 min 28 s
Bit rate                                 : 88 b/s
Frame rate                               : 0.254 FPS
Count of elements                        : 465
Stream size                              : 19.7 KiB (0%)
Language                                 : Serbian-Latn-RS
Default                                  : No
Forced                                   : No

Text #23
ID                                       : 25
Format                                   : UTF-8
Codec ID                                 : S_TEXT/UTF8
Codec ID/Info                            : UTF-8 Plain Text
Duration                                 : 31 min 30 s
Bit rate                                 : 81 b/s
Frame rate                               : 0.197 FPS
Count of elements                        : 372
Stream size                              : 18.7 KiB (0%)
Language                                 : Swedish (SE)
Default                                  : No
Forced                                   : No

Menu
00:00:00.000                             : en:Studio Logo
00:00:07.000                             : en:Title Sequence
00:00:12.000                             : en:Scene 3
00:06:47.000                             : en:Scene 4
00:14:18.000                             : en:Scene 5
00:21:54.000                             : en:Scene 6
00:27:54.000                             : en:Scene 7
00:30:30.000                             : en:End Credits



Download
File Container: MKV
Video/Audio Codec: H264 (HIGH) EAC3
Video Resolution: 1280x720
Please Login to post a comment.
If you don't have any account, please Register.
  • Subscribe my Feeds
  • Facebook
Encoding Queue:  x264  x265

Latest Episodes

Popular Movies and TV Shows

  • Sugar
  • A Gentleman in Moscow
  • Young Sheldon
  • River Wild
  • Dune: Part Two
  • Late Night with the Devil
  • Law & Order: Special Victims Unit
  • Manhunt
  • Ghosts
  • You Were Never Really Here
  • The Reader
  • Barbarian
  • Star Trek: Discovery
  • Family Guy
  • American Horror Story
  • Ghostbusters: Frozen Empire
  • The Three Musketeers - Part II: Milady
  • Green Lantern
  • Chucky
  • The Bold and the Beautiful
  • Walker
  • Godzilla x Kong: The New Empire
  • La marge
  • The Inseparables
  • FBI

Recent Comments

  • yopo:

    NitroFlare's link is missing !!!

  • yopo:

    NitroFlare's link is missing !!!

  • yopo:

    NitroFlare's link is missing !!!
    Clicknupload's link is missing !!!

  • yopo:

    NitroFlare's link is missing !!!

  • dragonnightfire: I have tried contacting Rapid Rar to find out what is going on with the server maintainance. I am no...
  • dragonnightfire:

    RR links dead on 5 eps

  • Draveren: hi. can we solve this "server under maintenance" stuff, already? if back in the day i'd ke...
  • Majnon: The links are dead. Please re-upload
  • timt:

    Anyone have the movie "Shoot" (1976) to post?

  • Nightshade: Hey, it appears at least the RMTeam separate episodes and ION's packs for the first two seasons of t...
  • Bigfishguy:

    There's no free option to download this video. Can someone please upload it to clicknupload?

  • timt:

    Junk

  • timt:

    CAM Audio

  • timt:

    Hard Coded SUMS! Russian, I Think.

  • ubirattan:

    Mandem um Fikper, por favor.

  • kellym2: No answer yet for my query - why all the episodes "server under maintenance" on some episo...
  • Majnon:

    Rapidrar links are dead :(

  • Rake:

    Loads of "Server is under maintenance" with RR theese days...

  • kellym2: Why am I getting "Server is in maintenance mode" on some episodes of a series and not on o...

Archives