Sign Up   |   Sign In  

Announcements

Want to support us?
Buy a RapidRAR account from our resellers:
Buy or renew a NitroFlare account via THIS LINK

06/17

2017

No

Comments

Dark Matter S03E01 1080p WEB-DL DD5 1 H264-RARBG
[RR/NF/UL/UR/CU]
Size: 1.6GB mkv H264 (HIGH) / AC3  HD  1920x1080

Dark Matter
Click on the image to see full size
[RR/NF/UL/UR/CU] Dark Matter S03E01 1080p WEB-DL DD5 1 H264-RARBG (1.6GB) - Snapshot 1
File Information
[URL=http://imagecurl.com/viewer.php?file=75784634074206233993.png][IMG]http://imagecurl.com/images/75784634074206233993_thumb.png[/IMG][/URL]
[URL=http://imagecurl.com/viewer.php?file=75347688692635856285.png][IMG]http://imagecurl.com/images/75347688692635856285_thumb.png[/IMG][/URL]
[URL=http://imagecurl.com/viewer.php?file=65514432386369228299.png][IMG]http://imagecurl.com/images/65514432386369228299_thumb.png[/IMG][/URL]
[URL=http://imagecurl.com/viewer.php?file=57985788181744253039.png][IMG]http://imagecurl.com/images/57985788181744253039_thumb.png[/IMG][/URL]
[URL=http://imagecurl.com/viewer.php?file=76487098959492067863.png][IMG]http://imagecurl.com/images/76487098959492067863_thumb.png[/IMG][/URL]
[URL=http://imagecurl.com/viewer.php?file=45646666407959366100.png][IMG]http://imagecurl.com/images/45646666407959366100_thumb.png[/IMG][/URL]



[mediainfo]
Video
ID                                       : 1
Format                                   : AVC
Format/Info                              : Advanced Video Codec
Format profile                           : [email protected]
Format settings, CABAC                   : Yes
Format settings, ReFrames                : 4 frames
Codec ID                                 : V_MPEG4/ISO/AVC
Duration                                 : 43 min 5 s
Bit rate                                 : 4 896 kb/s
Width                                    : 1 920 pixels
Height                                   : 1 080 pixels
Display aspect ratio                     : 16:9
Frame rate mode                          : Constant
Frame rate                               : 23.976 (24000/1001) FPS
Color space                              : YUV
Chroma subsampling                       : 4:2:0
Bit depth                                : 8 bits
Scan type                                : Progressive
Bits/(Pixel*Frame)                       : 0.098
Stream size                              : 1.47 GiB (91%)
Title                                    : Dark.Matter.S03E01.1080p.WEB-DL.DD5.1.H264-RARBG
Language                                 : English
Default                                  : Yes
Forced                                   : No
Color range                              : Limited
Color primaries                          : BT.709
Transfer characteristics                 : BT.709
Matrix coefficients                      : BT.709

Audio
ID                                       : 2
Format                                   : AC-3
Format/Info                              : Audio Coding 3
Format settings, Endianness              : Big
Codec ID                                 : A_AC3
Duration                                 : 43 min 5 s
Bit rate mode                            : Constant
Bit rate                                 : 384 kb/s
Channel(s)                               : 6 channels
Channel positions                        : Front: L C R, Side: L R, LFE
Sampling rate                            : 48.0 kHz
Frame rate                               : 31.250 FPS (1536 spf)
Bit depth                                : 16 bits
Compression mode                         : Lossy
Delay relative to video                  : -42 ms
Stream size                              : 118 MiB (7%)
Title                                    : Dark.Matter.S03E01.1080p.WEB-DL.DD5.1.H264-RARBG
Language                                 : English
Service kind                             : Complete Main
Default                                  : Yes
Forced                                   : No

Text #1
ID                                       : 3
Format                                   : UTF-8
Codec ID                                 : S_TEXT/UTF8
Codec ID/Info                            : UTF-8 Plain Text
Language                                 : English
Default                                  : Yes
Forced                                   : No

Text #2
ID                                       : 4
Format                                   : UTF-8
Codec ID                                 : S_TEXT/UTF8
Codec ID/Info                            : UTF-8 Plain Text
Title                                    : SDH
Language                                 : English
Default                                  : No
Forced                                   : No



[/mediainfo]
Download
File Container: MKV
Video/Audio Codec: H264 (HIGH) AC3
Video Resolution: 1920x1080
 
 
 
 
 

Show us some love

Leave a Comment

  • (never displayed)
  •  
        Members don't see captchas. Sign Up / Sign In
  • Notify me via email when someone responds.
  • Subscribe my Feeds
  • Facebook

Latest Episodes

Popular Movies and TV Shows

  • People Just Do Nothing
  • DuckTales
  • Miso Hungry
  • Stomping Ground
  • Late Night with Seth Meyers
  • Andy's Rainbow
  • Spider-Man
  • The Orville
  • Evil Things
  • Innocent Blood
  • Sniper: Ultimate Kill
  • Scorned
  • Mike Judge Presents: Tales from the Tour Bus
  • #Stuck
  • Room 104
  • Zoo
  • Subterranea
  • Chris Brown: Welcome to My Life
  • The Book of Henry
  • Gotham
  • Killing Gunther
  • Mr. Mercedes
  • I am Frankie
  • Lone Wolves
  • Bad Blood

Recent Comments