Sign Up   |   Sign In  

Announcements

Want to support us?
Buy a RapidRAR account from our resellers:
Buy or renew a NitroFlare account via THIS LINK

06/17

2017

No

Comments

Dark Matter S03E01 720p WEB-DL DD5 1 H264-RARBG
[RR/NF/UL/UR/CU]
Size: 1.3GB mkv H264 (HIGH) / AC3  HD  1280x720

Dark Matter
Click on the image to see full size
[RR/NF/UL/UR/CU] Dark Matter S03E01 720p WEB-DL DD5 1 H264-RARBG (1.3GB) - Snapshot 1
File Information
[URL=http://imagecurl.com/viewer.php?file=00873082859778830665.png][IMG]http://imagecurl.com/images/00873082859778830665_thumb.png[/IMG][/URL]
[URL=http://imagecurl.com/viewer.php?file=95113357379479471033.png][IMG]http://imagecurl.com/images/95113357379479471033_thumb.png[/IMG][/URL]
[URL=http://imagecurl.com/viewer.php?file=76580959270008940322.png][IMG]http://imagecurl.com/images/76580959270008940322_thumb.png[/IMG][/URL]
[URL=http://imagecurl.com/viewer.php?file=32141056352784069383.png][IMG]http://imagecurl.com/images/32141056352784069383_thumb.png[/IMG][/URL]
[URL=http://imagecurl.com/viewer.php?file=87862291959799360310.png][IMG]http://imagecurl.com/images/87862291959799360310_thumb.png[/IMG][/URL]
[URL=http://imagecurl.com/viewer.php?file=15793958817644421225.png][IMG]http://imagecurl.com/images/15793958817644421225_thumb.png[/IMG][/URL]



[mediainfo]
Video
ID                                       : 1
Format                                   : AVC
Format/Info                              : Advanced Video Codec
Format profile                           : [email protected]
Format settings, CABAC                   : No
Format settings, ReFrames                : 2 frames
Codec ID                                 : V_MPEG4/ISO/AVC
Duration                                 : 43 min 5 s
Bit rate                                 : 3 998 kb/s
Width                                    : 1 280 pixels
Height                                   : 720 pixels
Display aspect ratio                     : 16:9
Frame rate mode                          : Constant
Frame rate                               : 23.976 (24000/1001) FPS
Color space                              : YUV
Chroma subsampling                       : 4:2:0
Bit depth                                : 8 bits
Scan type                                : Progressive
Bits/(Pixel*Frame)                       : 0.181
Stream size                              : 1.20 GiB (89%)
Title                                    : Dark.Matter.S03E01.720p.WEB-DL.DD5.1.H264-RARBG
Language                                 : English
Default                                  : Yes
Forced                                   : No
Color range                              : Limited
Color primaries                          : BT.709
Transfer characteristics                 : BT.709
Matrix coefficients                      : BT.709

Audio
ID                                       : 2
Format                                   : AC-3
Format/Info                              : Audio Coding 3
Format settings, Endianness              : Big
Codec ID                                 : A_AC3
Duration                                 : 43 min 5 s
Bit rate mode                            : Constant
Bit rate                                 : 384 kb/s
Channel(s)                               : 6 channels
Channel positions                        : Front: L C R, Side: L R, LFE
Sampling rate                            : 48.0 kHz
Frame rate                               : 31.250 FPS (1536 spf)
Bit depth                                : 16 bits
Compression mode                         : Lossy
Delay relative to video                  : -42 ms
Stream size                              : 118 MiB (9%)
Title                                    : Dark.Matter.S03E01.720p.WEB-DL.DD5.1.H264-RARBG
Language                                 : English
Service kind                             : Complete Main
Default                                  : Yes
Forced                                   : No

Text #1
ID                                       : 3
Format                                   : UTF-8
Codec ID                                 : S_TEXT/UTF8
Codec ID/Info                            : UTF-8 Plain Text
Language                                 : English
Default                                  : Yes
Forced                                   : No

Text #2
ID                                       : 4
Format                                   : UTF-8
Codec ID                                 : S_TEXT/UTF8
Codec ID/Info                            : UTF-8 Plain Text
Title                                    : SDH
Language                                 : English
Default                                  : No
Forced                                   : No



[/mediainfo]
Download
File Container: MKV
Video/Audio Codec: H264 (HIGH) AC3
Video Resolution: 1280x720
 
 
 
 
 

Show us some love

Leave a Comment

  • (never displayed)
  •  
        Members don't see captchas. Sign Up / Sign In
  • Notify me via email when someone responds.
  • Subscribe my Feeds
  • Facebook

Latest Episodes

Popular Movies and TV Shows

  • iZombie
  • Tales
  • Okja
  • Whose Line Is It Anyway?
  • By Any Means
  • Innocence
  • Hardcore Pawn
  • Animal Kingdom
  • The Lost City of Z
  • Pretty Little Liars
  • The Girl King
  • Transformers: The Last Knight
  • A Few Less Men
  • Wrecked
  • Downward Dog
  • Their Finest
  • Black Butterfly
  • Preacher
  • Broken
  • After School Special
  • Alien: Covenant
  • Stitchers
  • Glastonbury 2017
  • Don't Hang Up
  • Silicon Valley

Recent Comments

  • thaone:

    Thanks

  • LilSkippy:

    UL is dead. Can you re up

  • thaone:

    Thanks

  • thaone:

    Thanks

  • thaone:

    Thanks

  • GodzMustBeCrazy:

    No English rip?

  • hevc fan:

    admin: we are still missing an 1080 WEB-DL x265, its not in the queue... ;(

  • Buck:

    The link for uploaded is offline. Could you Plesse out it back online?

  • Magus1971: Uploaded.net as a storage (uploader) site is defunct. Was with them for years and was always happy, ...
  • amer220_amer220: Files deleted please resubmitPlz re-uploaded Plz re-uploaded Plz re-uploaded