Sign Up   |   Sign In  

Announcements

Want to support us?
Buy a RapidRAR account from our resellers:
Buy or renew a NitroFlare account via THIS LINK

06/17

2017

No

Comments

Dark Matter S03E03 720p WEB-DL DD5 1 H264-RARBG
[RR/NF/UL/UR/CU]
Size: 1.4GB mkv H264 (HIGH) / AC3  HD  1280x720

Dark Matter
Click on the image to see full size
[RR/NF/UL/UR/CU] Dark Matter S03E03 720p WEB-DL DD5 1 H264-RARBG (1.4GB) - Snapshot 1
File Information
[URL=http://imagecurl.com/viewer.php?file=73342302786437354281.png][IMG]http://imagecurl.com/images/73342302786437354281_thumb.png[/IMG][/URL]
[URL=http://imagecurl.com/viewer.php?file=30905453259946973609.png][IMG]http://imagecurl.com/images/30905453259946973609_thumb.png[/IMG][/URL]
[URL=http://imagecurl.com/viewer.php?file=00629666793934711810.png][IMG]http://imagecurl.com/images/00629666793934711810_thumb.png[/IMG][/URL]
[URL=http://imagecurl.com/viewer.php?file=48863368507931525514.png][IMG]http://imagecurl.com/images/48863368507931525514_thumb.png[/IMG][/URL]
[URL=http://imagecurl.com/viewer.php?file=62454362058109839895.png][IMG]http://imagecurl.com/images/62454362058109839895_thumb.png[/IMG][/URL]
[URL=http://imagecurl.com/viewer.php?file=44045618921226183517.png][IMG]http://imagecurl.com/images/44045618921226183517_thumb.png[/IMG][/URL]



[mediainfo]
Video
ID                                       : 1
Format                                   : AVC
Format/Info                              : Advanced Video Codec
Format profile                           : [email protected]
Format settings, CABAC                   : No
Format settings, ReFrames                : 2 frames
Codec ID                                 : V_MPEG4/ISO/AVC
Duration                                 : 43 min 5 s
Bit rate                                 : 4 025 kb/s
Width                                    : 1 280 pixels
Height                                   : 720 pixels
Display aspect ratio                     : 16:9
Frame rate mode                          : Constant
Frame rate                               : 23.976 (24000/1001) FPS
Color space                              : YUV
Chroma subsampling                       : 4:2:0
Bit depth                                : 8 bits
Scan type                                : Progressive
Bits/(Pixel*Frame)                       : 0.182
Stream size                              : 1.21 GiB (89%)
Title                                    : Dark.Matter.S03E03.720p.WEB-DL.DD5.1.H264-RARBG
Language                                 : English
Default                                  : Yes
Forced                                   : No
Color range                              : Limited
Color primaries                          : BT.709
Transfer characteristics                 : BT.709
Matrix coefficients                      : BT.709

Audio
ID                                       : 2
Format                                   : AC-3
Format/Info                              : Audio Coding 3
Format settings, Endianness              : Big
Codec ID                                 : A_AC3
Duration                                 : 43 min 5 s
Bit rate mode                            : Constant
Bit rate                                 : 384 kb/s
Channel(s)                               : 6 channels
Channel positions                        : Front: L C R, Side: L R, LFE
Sampling rate                            : 48.0 kHz
Frame rate                               : 31.250 FPS (1536 spf)
Bit depth                                : 16 bits
Compression mode                         : Lossy
Delay relative to video                  : -42 ms
Stream size                              : 118 MiB (9%)
Title                                    : Dark.Matter.S03E03.720p.WEB-DL.DD5.1.H264-RARBG
Language                                 : English
Service kind                             : Complete Main
Default                                  : Yes
Forced                                   : No

Text #1
ID                                       : 3
Format                                   : UTF-8
Codec ID                                 : S_TEXT/UTF8
Codec ID/Info                            : UTF-8 Plain Text
Language                                 : English
Default                                  : Yes
Forced                                   : No

Text #2
ID                                       : 4
Format                                   : UTF-8
Codec ID                                 : S_TEXT/UTF8
Codec ID/Info                            : UTF-8 Plain Text
Title                                    : SDH
Language                                 : English
Default                                  : No
Forced                                   : No



[/mediainfo]
Download
File Container: MKV
Video/Audio Codec: H264 (HIGH) AC3
Video Resolution: 1280x720
 
 
 
 
 

Show us some love

Leave a Comment

  • (never displayed)
  •  
        Members don't see captchas. Sign Up / Sign In
  • Notify me via email when someone responds.
  • Subscribe my Feeds
  • Facebook

Latest Episodes

Popular Movies and TV Shows

  • The Mist
  • Queen of the South
  • Nashville
  • Inran naru ichizoku: Dai-ni-shô - zetsurin no hate ni
  • Spider-Man: Homecoming
  • Operation Dunkirk
  • Top of the Lake
  • Zoo
  • Saving Hope
  • Widziadlo
  • Shot Caller
  • Kuudes kerta
  • Suits
  • Blood Drive
  • Queen Sugar
  • King Arthur: Legend of the Sword
  • Bill Burr: I'm Sorry You Feel That Way
  • The Wolf of Wall Street
  • Salvation
  • Snowfall
  • Game of Thrones
  • Awaken the Shadowman
  • Snatched
  • Hunter's Prayer
  • Shooter

Recent Comments

  • mda:

    1080p HEVC Please

  • Blue Moon: @Sqwirrelll ...people a whole hellavalot smarter than you.that description is exactly as it should b...
  • Sqwirrelll:

    "unripe 12-year-old pregnant girl"?!? Who on Earth writes these things...

  • RockB?: RockB? or rocks in your head? LOLif you read Admin's post correctly it says..new RapidRAR links and ...
  • RockB:

    Reuploaded with new RAR files? The Openload link is still dead.

  • D3m0N81:

    There is nothing in this movie.

  • David-A-H:

    Thank you

  • thaone:

    Thanks

  • thaone:

    Thanks

  • thaone:

    Thanks