Sign Up   |   Sign In  

Announcements

Want to support us?
Buy a RapidRAR account from our resellers:
Buy or renew a NitroFlare account via THIS LINK

06/17

2017

No

Comments

Dark Matter S03E03 WEB-DL x264-RARBG
[RR/NF/UL/OL/UR/CU]
Size: 214MB mp4 H264 (HIGH) (AVC1) / AAC (LC) (MP4A) 720x400

Dark Matter
Click on the image to see full size
[RR/NF/UL/OL/UR/CU] Dark Matter S03E03 WEB-DL x264-RARBG (214MB) - Snapshot 1[RR/NF/UL/OL/UR/CU] Dark Matter S03E03 WEB-DL x264-RARBG (214MB) - Snapshot 2
File Information
[URL]http://www.imdb.com/title/tt4159076/[/URL]
[screenshots]
[URL=http://imagecurl.com/viewer.php?file=45030530423137725121.png][IMG]http://imagecurl.com/images/45030530423137725121_thumb.png[/IMG][/URL]
[URL=http://imagecurl.com/viewer.php?file=32139695078394884741.png][IMG]http://imagecurl.com/images/32139695078394884741_thumb.png[/IMG][/URL]
[URL=http://imagecurl.com/viewer.php?file=20293645674541359055.png][IMG]http://imagecurl.com/images/20293645674541359055_thumb.png[/IMG][/URL]
[URL=http://imagecurl.com/viewer.php?file=13058464328744934441.png][IMG]http://imagecurl.com/images/13058464328744934441_thumb.png[/IMG][/URL]

[/screenshots]


[mediainfo]
Video
ID                                       : 1
Format                                   : AVC
Format/Info                              : Advanced Video Codec
Format profile                           : [email protected]
Format settings, CABAC                   : Yes
Format settings, ReFrames                : 5 frames
Codec ID                                 : avc1
Codec ID/Info                            : Advanced Video Coding
Duration                                 : 43mn 5s
Bit rate                                 : 562 Kbps
Width                                    : 720 pixels
Height                                   : 400 pixels
Display aspect ratio                     : 16:9
Frame rate mode                          : Constant
Frame rate                               : 23.976 (24000/1001) fps
Color space                              : YUV
Chroma subsampling                       : 4:2:0
Bit depth                                : 8 bits
Scan type                                : Progressive
Bits/(Pixel*Frame)                       : 0.081
Stream size                              : 173 MiB (81%)
Title                                    : RARBG.COM - Dark.Matter.S03E03.WEB-DL.x264-RARBG
Writing library                          : x264 core 148 r2597M e86f3a1
 Encoding settings                        : cabac=1 / ref=5 / deblock=1:-1:-1 / analyse=0x3:0x113 / me=umh / subme=9 / psy=1 / psy_rd=1.00:0.15 / mixed_ref=1 / me_range=16 / chroma_me=1 / trellis=2 / 8x8dct=1 / cqm=0 / deadz / fast pskip=1 / chroma_qp_offset=-3 / threads=12 / lookahead_threads=1 / sliced_threads=0 / nr=0 / decimate=1 / interlaced=0 / bluray_compat=0 / c / bframes=3 / b_pyramid=2 / b_adapt=2 / b_bias=0 / direct=3 / weightb=1 / open_gop=0 / weightp=2 / keyint=250 / keyint_min=23 / scenecut=40 / intra_refresh=0 / rc_lookahead=50 / rc=crf / mbtree=1 / crf=19.0 / qcomp=0.60 / qpmin=0 / qpmax=69 / qpstep=4 / ip_ratio=1.40 / aq=1:1.00
Language                                 : English
Encoded date                             : UTC 2017-06-17 13:42:26
Tagged date                              : UTC 2017-06-17 13:42:26

Audio
ID                                       : 2
Format                                   : AAC
Format/Info                              : Advanced Audio Codec
Format profile                           : LC
Codec ID                                 : 40
Duration                                 : 43mn 5s
Bit rate mode                            : Constant
Bit rate                                 : 128 Kbps
Channel(s)                               : 2 channels
Channel positions                        : Front: L R
Sampling rate                            : 48.0 KHz
Frame rate                               : 46.875 fps (1024 spf)
Compression mode                         : Lossy
Stream size                              : 39.5 MiB (18%)
Title                                    : RARBG.COM - Dark.Matter.S03E03.WEB-DL.x264-RARBG
Language                                 : English
Default                                  : Yes
Alternate group                          : 1
Encoded date                             : UTC 2017-06-17 13:42:26
Tagged date                              : UTC 2017-06-17 13:42:26



[/mediainfo]
Download
File Container: MP4
Video/Audio Codec: H264 (HIGH) (AVC1) AAC (LC) (MP4A)
Video Resolution: 720x400
 
 
 
 
 
 

Show us some love

Leave a Comment

  • (never displayed)
  •  
        Members don't see captchas. Sign Up / Sign In
  • Notify me via email when someone responds.
  • Subscribe my Feeds
  • Facebook

Latest Episodes

Popular Movies and TV Shows

  • Fargo
  • Is Genesis History?
  • Genius
  • Blood Drive
  • Miracle Beach
  • Addicted to Porn: Chasing the Cardboard Butterfly
  • Pawn Stars
  • Good Witch
  • iZombie
  • Kong: Skull Island
  • Dial M for Murder
  • Frantz
  • Queen Sugar
  • Lopez
  • Straw Dogs
  • This Beautiful Fantastic
  • Better Call Saul
  • Beyond Sleep
  • Animal Kingdom
  • Downward Dog
  • Shadowhunters
  • Battlestar Galactica
  • Cars 3
  • Ashley Madison: Sex, Lies & Cyber Attacks
  • Resident Evil: Vendetta

Recent Comments

  • Liberty:

    Thanks. $:)

  • SEASHORE 1: Please,Keep on the good work...Upload the "Downward Dog S01E05 Old 480p WEB-DL x264-RMTeam"...
  • melanie:

    Could you please do a x265 encode? Thanks

  • Mega: ClickNUpload and Openload are the fastest for free users, and no size, or bigger size limits. They b...
  • D3m0N81:

    thanks for the share

    cheers RMTeam

  • rgvda: It's not "Genius 2017 S01E10", It's "Genius 2017 S01E09-E10"... ("Genius 20...
  • Nk5672:

    Please upload in x265

  • komo:

    Thanks admin where is the first and second episode

  • alfa:

    Thanks

  • MeH: Thanks PS CRF=23.5 is better than CRF=24 but still way to go to CRF=22 which gives better quality an...